+ ตอบกลับกระทู้
สรุปผลการค้นหา 1 ถึง 4 จากทั้งหมด 4
  1. #1
    Administrators รูปส่วนตัว Duckload.us
    สมัครเมื่อ
    Dec 2010
    โพสต์
    108,668
    Thanks
    7
    Thanked 113,703 Times in 52,418 Posts

    Question (จีน.ภาพ HQ.เสียงจีน มาสเตอร์+ไทยโรง.)-JADE DYNASTY (2019) กระบี่เทพสังหาร-[HDRip.1080p][ Sound:Eng AC3 5.1+Thai Rong AC3 2.0][ H-SUB Chinese]



    เรื่องราวของเด็กชายกำพร้าที่รอดตายจากโศกนาฏกรรมจาก หมู่บ้านของเขา แม้พ่อแม่จะถูกฆ่าตายหมด แต่เขาได้รับความช่วยเหลือและได้พบกับอาจารย์สอนและฝ ึกฝนวิชาจากสำนักชิงหยุน เมื่อความลับของการตายของพ่อแม่เขาปรากฏ เขาจึงออกตามล่าศัตรูเพื่อแก้แค้นให้กับพ่อแม่ของเขา ที่จากไป

    โดยภาพยนตร์ Jade Dynasty กระบี่เทพสังหาร เปิดตัวด้วยรายได้ถล่มบ็อกออฟฟิตในประเทศจีนไปกว่า 300 ล้านหยวนภายในสัปดาห์แรก นำแสดงโดยพระเอกสุดฮอตติดชาร์ตยอดนิยมอันดับหนึ่งทุก โพล ‘เซียวจ้าน’ ที่มีแฟนคลับมากมาย เจ้าของสถิติบัตรแฟนมีทขายหมดในหนึ่งนาที และสาวๆอย่าง หลี่ซิ่น, เมิ่งเหม่ยฉี และ ถังยี่ซิน รวมทั้งดารามากมายอีกคับคั่ง

    Format : Matroska
    Format version : Version 4
    File size : 3.50 GiB
    Duration : 1 h 40 min
    Overall bit rate mode : Constant
    Overall bit rate : 4 960 kb/s
    Movie name : Jade Dynasty 2019 HDRip 1080p.THR_ฉGOLD CUP™
    Video
    ID : 1
    Format : AVC
    Format/Info : Advanced Video Codec
    Format profile : [email protected]
    Format settings : CABAC / 1 Ref Frames
    Format settings, CABAC : Yes
    Format settings, Reference : 1 frame
    Format settings, GOP : M=1, N=25
    Codec ID : V_MPEG4/ISO/AVC
    Duration : 1 h 40 min
    Bit rate mode : Constant
    Bit rate : 4 000 kb/s
    Width : 1 920 pixels
    Height : 800 pixels
    Display aspect ratio : 2.40:1
    Frame rate mode : Constant
    Frame rate : 29.970 (30000/1001) FPS
    Color space : YUV
    Chroma subsampling : 4:2:0
    Bit depth : 8 bits
    Scan type : Progressive
    Bits/(Pixel*Frame) : 0.087
    Stream size : 2.82 GiB (81%)
    Title : Jade Dynasty 2019 HDRip 1080p.THR_ฉGOLD CUP™
    Language : Chinese
    Default : Yes
    Forced : No

    Audio #1
    ID : 2
    Format : AC-3
    Format/Info : Audio Coding 3
    Commercial name : Dolby Digital
    Codec ID : A_AC3
    Duration : 1 h 40 min
    Bit rate mode : Constant
    Bit rate : 320 kb/s
    Channel(s) : 2 channels
    Channel layout : L R
    Sampling rate : 44.1 kHz
    Frame rate : 28.711 FPS (1536 SPF)
    Compression mode : Lossy
    Stream size : 231 MiB (6%)
    Title : 2.0 AC3 THR 320k 230m_ฉGOLD CUP™
    Language : Thai
    Service kind : Complete Main
    Default : Yes
    Forced : No

    Audio #2
    ID : 3
    Format : AC-3
    Format/Info : Audio Coding 3
    Commercial name : Dolby Digital
    Codec ID : A_AC3
    Duration : 1 h 40 min
    Bit rate mode : Constant
    Bit rate : 640 kb/s
    Channel(s) : 6 channels
    Channel layout : L R C LFE Ls Rs
    Sampling rate : 44.1 kHz
    Frame rate : 28.711 FPS (1536 SPF)
    Compression mode : Lossy
    Stream size : 462 MiB (13%)
    Title : 5.1 AC3 Chi 640k 461m_ฉGOLD CUP™
    Language : Chinese
    Service kind : Complete Main
    Default : No
    Forced : No






    Download: cornfile
    http://cornfile.com/s7nda77heeso
    Download: mekafile
    http://www.mekafile.com/dl.php?f=1F3c97c1Eate

  2. The Following User Says Thank You to Duckload.us For This Useful Post:

    noi54 (11-18-2019)

  3. #2
    Senior Member
    สมัครเมื่อ
    Jun 2014
    โพสต์
    1,347
    Thanks
    0
    Thanked 0 Times in 0 Posts
    ขอบคุณครับ

  4. #3
    Senior Member
    สมัครเมื่อ
    Jul 2014
    โพสต์
    173
    Thanks
    5
    Thanked 0 Times in 0 Posts
    ขอบคุณครับ

  5. #4
    Senior Member
    สมัครเมื่อ
    Oct 2013
    โพสต์
    1,586
    Thanks
    0
    Thanked 0 Times in 0 Posts
    ขอบคุณครับ

+ ตอบกลับกระทู้

ข้อมูลกระทู้

Users Browsing this Thread

ในขณะนี้มี 1 ท่านดูกระทู้อยู่. (0 สมาชิกและ 1 ผู้เยี่ยมชม)

     

กฎการโพสต์ข้อความ

  • ท่าน ไม่สามารถ ตั้งกระทู้ใหม่ได้
  • ท่าน ไม่สามารถ ตอบกระทู้ได้
  • ท่าน ไม่สามารถ แนบไฟล์ได้
  • ท่าน ไม่สามารถ แก้ไขข้อความโพสต์ได้
  • BB code สถานะ เปิด
  • Smilies สถานะ เปิด
  • [IMG] สถานะ เปิด
  • HTML สถานะ ปิด