+ ตอบกลับกระทู้
สรุปผลการค้นหา 1 ถึง 3 จากทั้งหมด 3
  1. #1
    Administrators รูปส่วนตัว Duckload.us
    สมัครเมื่อ
    Dec 2010
    โพสต์
    108,668
    Thanks
    7
    Thanked 113,699 Times in 52,418 Posts

    Question (ฝรั่ง.ไทยมาสเตอร์)-THE ART OF SELF-DEFENSE (2019) ยอดวิชาคาราเต้สุดป่วง-[☼BluRay.1080p][ Sound:Eng AC3 5.1/Thai AC3 5.1:MASTER][SUB:Eng.Vob/PGS]



    หลังจากที่เขาถูกอัดเละโดยแก๊งมอเตอร์ไซค์เร่ร่อน เคซีย์ (เจสซี่ ไอเซนเบิร์ก) พนักงานบัญชีขี้อายจึงตัดสินใจเข้าเรียนคาราเต้เพื่อ เรียนรู้วิธีการป้องกันตัวเอง ภายใต้การดูแลของอาจารย์ (แอเลสแซนโดร้ นิโวล่า) และเจ้าของสายน้ำตาล แอนนา (อิโมเกน พูตส์) ทำให้เคซีย์มีความมั่นใจเป็นครั้งแรกในชีวิต แต่เมื่อเขาได้เข้าร่วมชั้นเรียนคืนหนึ่ง เขาได้ค้นพบโลกของความเป็นพี่น้อง ความโหดร้าย และความเป็นชาย ส่งผลให้เขาตกอยู่ภายใต้การเพ่งเล็งจากอาจารย์อันลึก ลับของเขา

    ormat : Matroska
    Format version : Version 4
    File size : 3.63 GiB
    Duration : 1 h 44 min
    Overall bit rate : 4 982 kb/s
    Movie name : The.Art.of.Self.Defense.2019.1080p.BluRay._ฉGOLD CUP™

    Video
    ID : 1
    Format : AVC
    Format/Info : Advanced Video Codec
    Format profile : [email protected]
    Format settings : CABAC / 1 Ref Frames
    Format settings, CABAC : Yes
    Format settings, Reference : 1 frame
    Format settings, GOP : M=1, N=25
    Codec ID : V_MPEG4/ISO/AVC
    Duration : 1 h 44 min
    Bit rate mode : Constant
    Bit rate : 4 000 kb/s
    Width : 1 920 pixels
    Height : 1 040 pixels
    Display aspect ratio : 1.85:1
    Frame rate mode : Constant
    Frame rate : 29.970 (30000/1001) FPS
    Color space : YUV
    Chroma subsampling : 4:2:0
    Bit depth : 8 bits
    Scan type : Progressive
    Bits/(Pixel*Frame) : 0.067
    Stream size : 2.91 GiB (80%)
    Title : The.Art.of.Self.Defense.2019.1080p.BluRay._ฉGOLD CUP™
    Language : English
    Default : Yes
    Forced : No

    Audio #1
    ID : 2
    Format : AC-3
    Format/Info : Audio Coding 3
    Commercial name : Dolby Digital
    Codec ID : A_AC3
    Duration : 1 h 44 min
    Bit rate mode : Constant
    Bit rate : 320 kb/s
    Channel(s) : 6 channels
    Channel layout : L R C LFE Ls Rs
    Sampling rate : 44.1 kHz
    Frame rate : 28.711 FPS (1536 SPF)
    Compression mode : Lossy
    Stream size : 239 MiB (6%)
    Title : 5.1 AC3 TH 320k 238m_ฉGOLD CUP™
    Language : Thai
    Service kind : Complete Main
    Default : Yes
    Forced : No

    Audio #2
    ID : 3
    Format : AC-3
    Format/Info : Audio Coding 3
    Commercial name : Dolby Digital
    Codec ID : A_AC3
    Duration : 1 h 44 min
    Bit rate mode : Constant
    Bit rate : 640 kb/s
    Channel(s) : 6 channels
    Channel layout : L R C LFE Ls Rs
    Sampling rate : 44.1 kHz
    Frame rate : 28.711 FPS (1536 SPF)
    Compression mode : Lossy
    Stream size : 478 MiB (13%)
    Title : 5.1 AC3 En 640k 477m_ฉGOLD CUP™
    Language : English
    Service kind : Complete Main
    Default : No
    Forced : No

    Text #1
    ID : 4
    Format : VobSub
    Muxing mode : zlib
    Codec ID : S_VOBSUB
    Codec ID/Info : Picture based subtitle format used on DVDs
    Duration : 1 h 39 min
    Bit rate : 10.5 kb/s
    Count of elements : 1161
    Stream size : 7.46 MiB (0%)
    Title : SDH.Vob_ฉGOLD CUP™
    Language : English
    Default : Yes
    Forced : No

    Text #2
    ID : 5
    Format : PGS
    Muxing mode : zlib
    Codec ID : S_HDMV/PGS
    Codec ID/Info : Picture based subtitle format used on BDs/HD-DVDs
    Duration : 1 h 40 min
    Bit rate : 26.6 kb/s
    Count of elements : 2024
    Stream size : 19.0 MiB (1%)
    Title : The.Art.of.Self.Defense.1080p.En.90-70-10 Yellow.PGS_ฉGOLD CUP™
    Language : English
    Default : No
    Forced : No





    Download: cornfile
    http://cornfile.com/lztyw9hjkjek
    Download: mekafile
    http://www.mekafile.com/dl.php?f=zQd4e3c1EaA7

  2. The Following 3 Users Say Thank You to Duckload.us For This Useful Post:

    apichartdear (11-18-2019), bigbang06 (11-18-2019), Jodz14 (11-17-2019)

  3. #2
    Senior Member
    สมัครเมื่อ
    Jun 2014
    โพสต์
    1,347
    Thanks
    0
    Thanked 0 Times in 0 Posts
    ขอบคุณครับ

  4. #3
    Member
    สมัครเมื่อ
    Jul 2013
    โพสต์
    90
    Thanks
    0
    Thanked 0 Times in 0 Posts
    ขอบคุณครับผม กำลังอยากดูพอดีเลย

+ ตอบกลับกระทู้

ข้อมูลกระทู้

Users Browsing this Thread

ในขณะนี้มี 1 ท่านดูกระทู้อยู่. (0 สมาชิกและ 1 ผู้เยี่ยมชม)

     

กฎการโพสต์ข้อความ

  • ท่าน ไม่สามารถ ตั้งกระทู้ใหม่ได้
  • ท่าน ไม่สามารถ ตอบกระทู้ได้
  • ท่าน ไม่สามารถ แนบไฟล์ได้
  • ท่าน ไม่สามารถ แก้ไขข้อความโพสต์ได้
  • BB code สถานะ เปิด
  • Smilies สถานะ เปิด
  • [IMG] สถานะ เปิด
  • HTML สถานะ ปิด