+ ตอบกลับกระทู้
สรุปผลการค้นหา 1 ถึง 1 จากทั้งหมด 1
  1. #1
    Administrators รูปส่วนตัว Duckload.us
    สมัครเมื่อ
    Dec 2010
    โพสต์
    108,668
    Thanks
    7
    Thanked 113,704 Times in 52,418 Posts

    Question [ฝรั่ง]-Apollo 11 (2019) อพอลโล 11 พากย์ไทย Dolby 5.1 - อังกฤษ DTS 5.1 + ซับอังกฤษ PGS **ไม่มีซับไทย**-Blu-ray.AC-3.1080p. [Modified]-[พากย์ไทย]



    ความยาวหนัง : 01:33
    Rating : 8.3
    ปีที่ออกฉาย : 2019
    ผู้กำกับ : Todd Douglas Miller
    ผู้เขียนบท: -
    นักแสดงหลัก : Neil Armstrong, Michael Collins, Buzz Aldrin

    คอลลินส์กล่าวว่า ภารกิจอะพอลโล 11 สู่ดวงจันทร์นั้นมีเหตุการณ์สำคัญทางประวัติศาสตร์เก ิดขึ้นตลอดทาง และสำคัญเหนือสิ่งอื่นใดก็คือ มันเป็นบทพิสูจน์ของความพยายามของทุกคน ที่ได้ร่วมแรงใจกันทำงานอย่างหนักจนมีวันนั้นเกิดขึ้ น

    ซึ่งความพยายามเหล่านั้นก็ได้รับการพิสูจน์แล้วจากผู ้คนกว่า 650 ล้านคนที่ได้เคยรับชมถ่ายทอดสดในครั้งนั้น กับภาพของนีล อาร์มสตรองพร้อมกับคำพูดในตำนานที่ว่า “ก้าวเล็กๆ ของชายคนหนึ่ง แต่มันคือก้าวที่ยิ่งใหญ่ของมนุษยชาติ” (“one small step for (a) man, one giant leap for mankind.”)

    จนถึงปัจจุบันภาพของทั้งสองนักบินอวกาศบนดวงจันทร์ทั ้งอัลดรินและอาร์มสตรองก็ยังคงเป็นที่จดจำในประวัติศ าสตร์สืบต่อไป ไม่ว่าจะเป็นภาพที่พวกเขากำลังปักธงชาติอเมริกันบนดว งจันทร์ หรือภาพอื่นๆ ทั้งหมดนี้มีความหมายสำคัญต่อสัญลักษณ์แรกของโครงการ อวกาศสหรัฐ อีกทั้งเหล่านักบินอวกาศทั้งสามในภารกิจอะพอลโล่ 11 ยังเดินทางไปสู่ดวงจันทร์ในฐานะตัวแทนของมนุษยชาติทั ้งหมดอีกด้วย

    เรื่องย่อหนัง :

    เป็นยานอวกาศลำแรกที่ลงจอดบนผิวของดวงจันทร์สำเร็จขอ งองค์การนาซา อะพอลโล 11 ถูกส่งขึ้นสู่ชั้นบรรยากาศโดยจรวด แซเทิร์น 5 (Saturn V) ที่ฐานยิงจรวดที่แหลมเคเนดี รัฐฟลอริดา เมื่อวันที่ 16 กรกฎาคม ค.ศ. 1969 อีก 3 วันต่อมาก็สามารถลงจอดบริเวณ “ทะเลแห่งความเงียบสงบ” (Mare Tranquilitatis) ได้สำเร็จ ลูกเรือในยานอวกาศประกอบด้วยนีล อาร์มสตรอง ผู้บังคับการ, เอดวิน อัลดริน (Adwin Aldrin) และไมเคิล คอลลินส์ อาร์มสตรองเป็นมนุษย์คนแรกที่ลงมาประทับรอยเท้าบนดวง จันทร์ ตามมาด้วยอัลดริน…!

    ทั้งสองได้ติดตั้งเครื่องวัดแผ่นดินไหว กระจกเลเซอร์เครื่องวัด “ลมสุริยะ” และเก็บตัวอย่างหินและดิน 20.8 กิโลกรัม นำกลับโลก รวมเวลาอยู่บนดวงจันทร์ 21 ชั่วโมง 36 นาที ใช้เวลานับตั้งแต่ออกเดินทางจนกลับถึงโลก 195 ชั่วโมง 18 นาที 35 วินาที กลับถึงโลกในวันที่ 24 กรกฎาคม ค.ศ. 1969 ยานอวกาศอะพอลโล 11 เป็นส่วนหนึ่งของโครงการอะพอลโล ซึ่งเกิดจากความปรารถนาของประธานาธิบดีจอห์น เอฟ. เคนเนดี ที่ต้องการส่งมนุษย์ไปยังดวงจันทร์ให้สำเร็จ และกลับมายังโลกอย่างปลอดภัย…!


    General
    Unique ID : 332302686618980982127454807086567886770
    Complete name : Apollo 11 (2019) อพอลโล 11.mkv
    Format : Matroska
    Format version : Version 4 / Version 2
    File size : 7.95 GiB
    Duration : 1 h 33 min
    Overall bit rate : 12.2 Mb/s
    Movie name : Apollo.11.2019.1080p.BluRay.AVC.8bit.DTS.x264-PATiPAT
    Encoded date : UTC 2019-11-16 09:49:43
    Writing application : mkvmerge v40.0.0 ('Old Town Road + Pony') 64-bit
    Writing library : libebml v1.3.9 + libmatroska v1.5.2
    Cover : Yes
    Attachments : cover

    Video
    ID : 1
    Format : AVC
    Format/Info : Advanced Video Codec
    Format profile : [email protected]
    Format settings, CABAC : Yes
    Format settings, RefFrames : 4 frames
    Codec ID : V_MPEG4/ISO/AVC
    Duration : 1 h 33 min
    Bit rate : 10.3 Mb/s
    Width : 1 920 pixels
    Height : 872 pixels
    Display aspect ratio : 2.2:1
    Frame rate mode : Constant
    Frame rate : 23.976 (24000/1001) FPS
    Color space : YUV
    Chroma subsampling : 4:2:0
    Bit depth : 8 bits
    Scan type : Progressive
    Bits/(Pixel*Frame) : 0.256
    Stream size : 6.67 GiB (84%)
    Writing library : x264 core 157 r2969 d4099dd
    Encoding settings : cabac=1 / ref=4 / deblock=1:-3:-32312
    Default : Yes
    Forced : No

    Audio #1
    ID : 2
    Format : DTS
    Format/Info : Digital Theater Systems
    Mode : 16
    Format settings, Endianness : Big
    Codec ID : A_DTS
    Duration : 1 h 33 min
    Bit rate mode : Constant
    Bit rate : 1 509 kb/s
    Channel(s) : 6 channels
    Channel positions : Front: L C R, Side: L R, LFE
    Sampling rate : 48.0 kHz
    Frame rate : 93.750 FPS (512 SPF)
    Bit depth : 24 bits
    Compression mode : Lossy
    Stream size : 1 004 MiB (12%)
    Language : English
    Default : No
    Forced : No

    Audio #2
    ID : 3
    Format : AC-3
    Format/Info : Audio Coding 3
    Format settings, Endianness : Big
    Codec ID : A_AC3
    Duration : 1 h 33 min
    Bit rate mode : Constant
    Bit rate : 640 kb/s
    Channel(s) : 6 channels
    Channel positions : Front: L C R, Side: L R, LFE
    Sampling rate : 48.0 kHz
    Frame rate : 31.250 FPS (1536 SPF)
    Bit depth : 16 bits
    Compression mode : Lossy
    Stream size : 426 MiB (5%)
    Language : Thai
    Service kind : Complete Main
    Default : Yes
    Forced : Yes

    Text #1
    ID : 4
    Format : UTF-8
    Codec ID : S_TEXT/UTF8
    Codec ID/Info : UTF-8 Plain Text
    Duration : 1 h 29 min
    Bit rate : 79 b/s
    Count of elements : 1591
    Stream size : 52.1 KiB (0%)
    Language : English
    Default : Yes
    Forced : Yes

    Text #2
    ID : 5
    Format : PGS
    Muxing mode : zlib
    Codec ID : S_HDMV/PGS
    Codec ID/Info : Picture based subtitle format used on BDs/HD-DVDs
    Duration : 1 h 29 min
    Bit rate : 26.4 kb/s
    Count of elements : 3184
    Stream size : 17.0 MiB (0%)
    Language : English
    Default : No
    Forced : No





    8.1 GB
    Download: cornfile
    http://cornfile.com/548p2nzmmvut
    Download: mekafile
    http://www.mekafile.com/dl.php?f=0j5b97c1E4o8

  2. The Following 4 Users Say Thank You to Duckload.us For This Useful Post:

    amorn wichian (11-18-2019), apichartdear (11-18-2019), Jodz14 (11-17-2019), noi54 (11-18-2019)

+ ตอบกลับกระทู้

ข้อมูลกระทู้

Users Browsing this Thread

ในขณะนี้มี 1 ท่านดูกระทู้อยู่. (0 สมาชิกและ 1 ผู้เยี่ยมชม)

     

กฎการโพสต์ข้อความ

  • ท่าน ไม่สามารถ ตั้งกระทู้ใหม่ได้
  • ท่าน ไม่สามารถ ตอบกระทู้ได้
  • ท่าน ไม่สามารถ แนบไฟล์ได้
  • ท่าน ไม่สามารถ แก้ไขข้อความโพสต์ได้
  • BB code สถานะ เปิด
  • Smilies สถานะ เปิด
  • [IMG] สถานะ เปิด
  • HTML สถานะ ปิด