+ ตอบกลับกระทู้
สรุปผลการค้นหา 1 ถึง 1 จากทั้งหมด 1
  1. #1
    Administrators รูปส่วนตัว Duckload.us
    สมัครเมื่อ
    Dec 2010
    โพสต์
    108,668
    Thanks
    7
    Thanked 113,700 Times in 52,418 Posts

    Question [ฝรั่ง]-[* ใหม่ ภาพชัดชนโรงฝังซับ+เสียงไทยโรงครบ! *] Gemini Man (2019) เจมิไน แมน [* 1080p.KORSUB.HDRip.x264.AC3.THR2.0 *] [พากย์ไทยโรง 2.0 + เสียงอังกฤษ 2.0] [บรรยายเกาหลีฝัง]




    เรื่องย่อ : เรื่องราวของ เฮนรี่ โบรแกน (วิล สมิธ) นักฆ่าฝีมือฉกาจซึ่งกลายเป็นเป้าหมายและถูกไล่ล่าโดย เจ้าหน้าที่ปฏิบัติการลับที่สามารถคาดการณ์การเคลื่อ นไหวของเขาได้ทุกฝีก้าว!!!

    Video
    ID : 1
    Format : AVC
    Format/Info : Advanced Video Codec
    Format profile : [email protected]
    Format settings, CABAC : Yes
    Format settings, RefFrames : 4 frames
    Codec ID : V_MPEG4/ISO/AVC
    Duration : 1 h 46 min
    Bit rate : 4 800 kb/s
    Width : 1 920 pixels
    Height : 1 040 pixels
    Display aspect ratio : 1.85:1
    Frame rate mode : Constant
    Frame rate : 30.000 FPS
    Color space : YUV
    Chroma subsampling : 4:2:0
    Bit depth : 8 bits
    Scan type : Progressive
    Bits/(Pixel*Frame) : 0.080
    Stream size : 3.61 GiB (91%)
    Title : Gemini.Man.2019.1080p.KORSUB.HDRip.x264.AC3.THR2.0 _HeRMineZ
    Writing library : x264 core 148 r2748 97eaef2
    Encoding settings : cabac=1 / ref=4 / deblock=1:0:0 / analyse=0x3:0x113 / me=umh / subme=9 / psy=1 / psy_rd=1.00:0.00 / mixed_ref=1 / me_range=16 / chroma_me=1 / trellis=2 / 8x8dct=1 / cqm=0 / deadzone=21,11 / fast_pskip=1 / chroma_qp_offset=-2 / threads=72 / lookahead_threads=6 / sliced_threads=0 / nr=0 / decimate=1 / interlaced=0 / bluray_compat=0 / constrained_intra=0 / bframes=3 / b_pyramid=2 / b_adapt=2 / b_bias=0 / direct=3 / weightb=1 / open_gop=0 / weightp=2 / keyint=250 / keyint_min=25 / scenecut=40 / intra_refresh=0 / rc_lookahead=50 / rc=abr / mbtree=1 / bitrate=4800 / ratetol=1.0 / qcomp=0.60 / qpmin=0 / qpmax=69 / qpstep=4 / ip_ratio=1.40 / aq=1:1.00
    Default : Yes
    Forced : No

    Audio #1
    ID : 2
    Format : AC-3
    Format/Info : Audio Coding 3
    Format settings, Endianness : Big
    Codec ID : A_AC3
    Duration : 1 h 47 min
    Bit rate mode : Constant
    Bit rate : 192 kb/s
    Channel(s) : 2 channels
    Channel positions : Front: L R
    Sampling rate : 48.0 kHz
    Frame rate : 31.250 FPS (1536 SPF)
    Bit depth : 16 bits
    Compression mode : Lossy
    Stream size : 147 MiB (4%)
    Title : Thai Rong 2.0 Modified By HeRMineZ @192 Kbps
    Language : Thai
    Service kind : Complete Main
    Default : Yes
    Forced : No

    Audio #2
    ID : 3
    Format : AAC
    Format/Info : Advanced Audio Codec
    Format profile : LC
    Codec ID : A_AAC
    Duration : 1 h 47 min
    Bit rate : 256 kb/s
    Channel(s) : 2 channels
    Channel positions : Front: L R
    Sampling rate : 48.0 kHz
    Frame rate : 46.875 FPS (1024 SPF)
    Compression mode : Lossy
    Delay relative to video : 22 ms
    Stream size : 196 MiB (5%)
    Title : English 2.0 @256 Kbps
    Language : English
    Default : No
    Forced : No














    3.9 GB
    Download: cornfile
    http://cornfile.com/v8qrtypwgmv7
    Download: mekafile
    http://www.mekafile.com/dl.php?f=7J990bc1E4TY

    3.9 GB
    Download: cornfile
    http://cornfile.com/grczcqixlk9r
    Download: mekafile
    http://www.mekafile.com/dl.php?f=DI399cc1Bi9R


    3.8 GB
    Download: cornfile
    http://cornfile.com/hsjlfhyxj21v
    Download: mekafile
    http://www.mekafile.com/dl.php?f=2p6d7ec1BdU0

  2. The Following User Says Thank You to Duckload.us For This Useful Post:

    Tellmon (11-21-2019)

+ ตอบกลับกระทู้

ข้อมูลกระทู้

Users Browsing this Thread

ในขณะนี้มี 1 ท่านดูกระทู้อยู่. (0 สมาชิกและ 1 ผู้เยี่ยมชม)

     

กฎการโพสต์ข้อความ

  • ท่าน ไม่สามารถ ตั้งกระทู้ใหม่ได้
  • ท่าน ไม่สามารถ ตอบกระทู้ได้
  • ท่าน ไม่สามารถ แนบไฟล์ได้
  • ท่าน ไม่สามารถ แก้ไขข้อความโพสต์ได้
  • BB code สถานะ เปิด
  • Smilies สถานะ เปิด
  • [IMG] สถานะ เปิด
  • HTML สถานะ ปิด