+ ตอบกลับกระทู้
สรุปผลการค้นหา 1 ถึง 2 จากทั้งหมด 2
  1. #1
    Administrators รูปส่วนตัว Duckload.us
    สมัครเมื่อ
    Dec 2010
    โพสต์
    108,714
    Thanks
    7
    Thanked 113,730 Times in 52,424 Posts

    Question (ฝรั่ง.ไทยมาสเตอร์)-THE MULE (2019) เดอะ มิวล์-จากแรงบันดานใจของเรื่องจริง-[BluRay1080p][ Sound:Eng AC3 5.1/Thai AC3 5.1:MASTER][SUB:Eng/Thai.PGS]




    เรื่องราวของชายชราวัย 90 ปี และอดีตยังเคยเป็นทหารผ่านศึกในสงครามโลกครั้งที่สอง ในภายหลังได้ผันตัวมาเป็นคนขับรถรับส่งยาเสพติด แต่เขาก็ถูกจับได้โดยตำรวจของสหรัฐอเมริกา ในขณะที่ขนส่งโคเคนมูลค่า 3 ล้านเหรียญให้กับแก๊งค้ายาเสพติดเม็กซิกัน

    Format : Matroska
    Format version : Version 4
    File size : 3.94 GiB
    Duration : 1 h 56 min
    Overall bit rate : 4 842 kb/s
    Movie name : The.Mule.2018.1080p.BluRay.x264_ฉGOLD CUP™
    Video
    ID : 1
    Format : AVC
    Format/Info : Advanced Video Codec
    Format profile : [email protected]
    Format settings : CABAC / 1 Ref Frames
    Format settings, CABAC : Yes
    Format settings, Reference : 1 frame
    Format settings, GOP : M=1, N=25
    Codec ID : V_MPEG4/ISO/AVC
    Duration : 1 h 56 min
    Bit rate mode : Constant
    Bit rate : 3 500 kb/s
    Width : 1 920 pixels
    Height : 800 pixels
    Display aspect ratio : 2.40:1
    Frame rate mode : Constant
    Frame rate : 29.970 (30000/1001) FPS
    Color space : YUV
    Chroma subsampling : 4:2:0
    Bit depth : 8 bits
    Scan type : Progressive
    Bits/(Pixel*Frame) : 0.076
    Stream size : 2.84 GiB (72%)
    Title : The.Mule.2018.1080p.BluRay.x264_ฉGOLD CUP™
    Language : English
    Default : Yes
    Forced : No

    Audio #1
    ID : 2
    Format : AC-3
    Format/Info : Audio Coding 3
    Commercial name : Dolby Digital
    Codec ID : A_AC3
    Duration : 1 h 56 min
    Bit rate mode : Constant
    Bit rate : 640 kb/s
    Channel(s) : 6 channels
    Channel layout : L R C LFE Ls Rs
    Sampling rate : 44.1 kHz
    Frame rate : 28.711 FPS (1536 SPF)
    Compression mode : Lossy
    Stream size : 533 MiB (13%)
    Title : 5.1 AC3 TH1 640k 533m_ฉGOLD CUP™
    Language : Thai
    Service kind : Complete Main
    Default : Yes
    Forced : No

    Audio #2
    ID : 3
    Format : AC-3
    Format/Info : Audio Coding 3
    Commercial name : Dolby Digital
    Codec ID : A_AC3
    Duration : 1 h 56 min
    Bit rate mode : Constant
    Bit rate : 640 kb/s
    Channel(s) : 6 channels
    Channel layout : L R C LFE Ls Rs
    Sampling rate : 44.1 kHz
    Frame rate : 28.711 FPS (1536 SPF)
    Compression mode : Lossy
    Stream size : 533 MiB (13%)
    Title : 5.1 AC3 EN 640k 533m_ฉGOLD CUP™
    Language : English
    Service kind : Complete Main
    Default : No
    Forced : No

    Text #1
    ID : 4
    Format : PGS
    Muxing mode : zlib
    Codec ID : S_HDMV/PGS
    Codec ID/Info : Picture based subtitle format used on BDs/HD-DVDs
    Duration : 1 h 55 min
    Bit rate : 34.9 kb/s
    Count of elements : 3040
    Stream size : 28.9 MiB (1%)
    Title : TH 100-85-5.pgs.White_ฉGOLD CUP™
    Language : Thai
    Default : Yes
    Forced : No

    Text #2
    ID : 5
    Format : PGS
    Muxing mode : zlib
    Codec ID : S_HDMV/PGS
    Codec ID/Info : Picture based subtitle format used on BDs/HD-DVDs
    Duration : 1 h 48 min
    Bit rate : 33.7 kb/s
    Count of elements : 3038
    Stream size : 26.1 MiB (1%)
    Title : EN 100-85-5.pgs.yellow_ฉGOLD CUP™
    Language : English
    Default : No
    Forced : No

    Text #3
    ID : 6
    Format : PGS
    Muxing mode : zlib
    Codec ID : S_HDMV/PGS
    Codec ID/Info : Picture based subtitle format used on BDs/HD-DVDs
    Duration : 1 h 48 min
    Bit rate : 39.0 kb/s
    Count of elements : 3404
    Stream size : 30.2 MiB (1%)
    Title : PGS.EN-SDH=ผู้บกพร่องทางเสียง 100-85-5 Mediem blue_ฉGOLD CUP™
    Language : English
    Default : No
    Forced : No






    Download: cornfile
    http://cornfile.com/7f43t9j6f6tt
    Download: mekafile
    http://www.mekafile.com/dl.php?f=de0abdc1LiRW

  2. The Following 3 Users Say Thank You to Duckload.us For This Useful Post:

    apichartdear (11-21-2019), noi54 (11-21-2019), smakha (11-21-2019)

  3. #2
    Senior Member
    สมัครเมื่อ
    Jun 2014
    โพสต์
    1,505
    Thanks
    0
    Thanked 0 Times in 0 Posts
    ขอบคุณครับ

+ ตอบกลับกระทู้

ข้อมูลกระทู้

Users Browsing this Thread

ในขณะนี้มี 1 ท่านดูกระทู้อยู่. (0 สมาชิกและ 1 ผู้เยี่ยมชม)

     

กฎการโพสต์ข้อความ

  • ท่าน ไม่สามารถ ตั้งกระทู้ใหม่ได้
  • ท่าน ไม่สามารถ ตอบกระทู้ได้
  • ท่าน ไม่สามารถ แนบไฟล์ได้
  • ท่าน ไม่สามารถ แก้ไขข้อความโพสต์ได้
  • BB code สถานะ เปิด
  • Smilies สถานะ เปิด
  • [IMG] สถานะ เปิด
  • HTML สถานะ ปิด