+ ตอบกลับกระทู้
สรุปผลการค้นหา 1 ถึง 3 จากทั้งหมด 3
  1. #1
    Administrators รูปส่วนตัว Duckload.us
    สมัครเมื่อ
    Dec 2010
    โพสต์
    108,708
    Thanks
    7
    Thanked 113,715 Times in 52,419 Posts

    Question (ญี่ปุ่น.ไทยมาสเตอร์)-ONLY THE CAT KNOWS (2019) เจ้าเหมียวจิบิ หายไปไหนนะ-[Web-dl.720p][ Sound:JP AC3 5.1/Thai AC3 5.1:MASTER][H-SUB Thai]




    มาซารุ และ ยูกิโกะ Only The Cat Knows ทั้งสองคนแต่งงานและใช้ชีวิตร่วมกันมากว่า 44 ปี ลูก ๆ ของพวกเขาทั้ง 3 คนต่างแยกย้ายกันไปมีชีวิตของตัวเอง โดยทั้งคู่ได้เลี้ยงแมวดำไว้หนึ่งตัวชื่อว่า จิบิ ด้วยความที่มาซารุเป็นคนที่ไม่ค่อยแสดงความรู้สึก จึงทำให้ยูกิโกะรู้สึกอึดอัดใจกับท่าทีของสามี โดยมีเพียงเจ้าจิบิ เป็นที่พึ่งทางใจ กระทั่งวันหนึ่ง ยูกิโกะได้บอกกับลูกสาวของเธอว่า ตนต้องการจะหย่ากับมาซารุ และตอนนั้นเอง เจ้าจิบิก็เกิดมาหายตัวไป

    Format : Matroska
    Format version : Version 4
    File size : 3.43 GiB
    Duration : 1 h 40 min
    Overall bit rate mode : Constant
    Overall bit rate : 4 879 kb/s
    Movie name : Only The Cat Knows (2019) 720p._©GOLD CUP™

    Video
    ID : 1
    Format : AVC
    Format/Info : Advanced Video Codec
    Format profile : [email protected]
    Format settings : CABAC / 1 Ref Frames
    Format settings, CABAC : Yes
    Format settings, Reference : 1 frame
    Format settings, GOP : M=1, N=25
    Codec ID : V_MPEG4/ISO/AVC
    Duration : 1 h 40 min
    Bit rate mode : Constant
    Bit rate : 4 240 kb/s
    Width : 1 280 pixels
    Height : 720 pixels
    Display aspect ratio : 16:9
    Frame rate mode : Constant
    Frame rate : 29.970 (30000/1001) FPS
    Color space : YUV
    Chroma subsampling : 4:2:0
    Bit depth : 8 bits
    Scan type : Progressive
    Bits/(Pixel*Frame) : 0.154
    Stream size : 2.98 GiB (87%)
    Title : Only The Cat Knows (2019) 720p._©GOLD CUP™
    Language : Japanese
    Default : Yes
    Forced : No

    Audio #1
    ID : 2
    Format : AC-3
    Format/Info : Audio Coding 3
    Commercial name : Dolby Digital
    Codec ID : A_AC3
    Duration : 1 h 40 min
    Bit rate mode : Constant
    Bit rate : 320 kb/s
    Channel(s) : 6 channels
    Channel layout : L R C LFE Ls Rs
    Sampling rate : 44.1 kHz
    Frame rate : 28.711 FPS (1536 SPF)
    Compression mode : Lossy
    Stream size : 230 MiB (7%)
    Title : 5.1 AC3 TH 320k 230m_©GOLD CUP™
    Language : Thai
    Service kind : Complete Main
    Default : Yes
    Forced : No

    Audio #2
    ID : 3
    Format : AC-3
    Format/Info : Audio Coding 3
    Commercial name : Dolby Digital
    Codec ID : A_AC3
    Duration : 1 h 40 min
    Bit rate mode : Constant
    Bit rate : 320 kb/s
    Channel(s) : 6 channels
    Channel layout : L R C LFE Ls Rs
    Sampling rate : 44.1 kHz
    Frame rate : 28.711 FPS (1536 SPF)
    Compression mode : Lossy
    Stream size : 230 MiB (7%)
    Title : 5.1 AC3 JP 320k 230m_©GOLD CUP™
    Language : Japanese
    Service kind : Complete Main
    Default : No
    Forced : No





    Download: cornfile
    http://cornfile.com/i2d3moshzzxn
    Download: mekafile
    http://www.mekafile.com/dl.php?f=Fs489bc1O20v

  2. The Following 2 Users Say Thank You to Duckload.us For This Useful Post:

    apichartdear (11-21-2019), gaszolineskywalker (11-24-2019)

  3. #2
    Senior Member
    สมัครเมื่อ
    Jun 2014
    โพสต์
    1,347
    Thanks
    0
    Thanked 0 Times in 0 Posts
    ขอบคุณครับ

  4. #3
    Senior Member
    สมัครเมื่อ
    Oct 2012
    โพสต์
    797
    Thanks
    1,736
    Thanked 0 Times in 0 Posts
    ขอบคุณครับ

+ ตอบกลับกระทู้

ข้อมูลกระทู้

Users Browsing this Thread

ในขณะนี้มี 1 ท่านดูกระทู้อยู่. (0 สมาชิกและ 1 ผู้เยี่ยมชม)

     

กฎการโพสต์ข้อความ

  • ท่าน ไม่สามารถ ตั้งกระทู้ใหม่ได้
  • ท่าน ไม่สามารถ ตอบกระทู้ได้
  • ท่าน ไม่สามารถ แนบไฟล์ได้
  • ท่าน ไม่สามารถ แก้ไขข้อความโพสต์ได้
  • BB code สถานะ เปิด
  • Smilies สถานะ เปิด
  • [IMG] สถานะ เปิด
  • HTML สถานะ ปิด