+ ตอบกลับกระทู้
สรุปผลการค้นหา 1 ถึง 4 จากทั้งหมด 4
  1. #1
    Administrators รูปส่วนตัว Duckload.us
    สมัครเมื่อ
    Dec 2010
    โพสต์
    108,708
    Thanks
    7
    Thanked 113,717 Times in 52,419 Posts

    Question [NETFLIX] The Knight Before Christmas (2019) อัศวินก่อนวันคริสต์มาส [พากย์:ไทย+อังกฤษ][SUB:ไทย+อังกฤษ][1080p] [AC-3+Atmos][h264][ซับไทยต้นฉบับNETFLIX PGS+Vobsub ]





    เวทมนตร์ในยุคกลางส่งอัศวินจากศตวรรษที่ 14 มาปรากฏตัวในรัฐโอไฮโอยุคปัจจุบัน และตกหลุมรักครูสอนวิทยาศาสตร์ชั้นม. ปลายที่ผิดหวังจากความรักจนไม่หลงเชื่ออะไรง่ายๆ อีกต่อไป"

    Format : Matroska
    Format version : Version 4 / Version 2
    File size : 3.04 GiB
    Duration : 1 h 39 min
    Overall bit rate : 4 375 kb/s
    Movie name : The.Knight [email protected]
    Encoded date : UTC 2019-11-21 08:58:23
    Writing application : mkvmerge v40.0.0 ('Old Town Road + Pony') 64-bit
    Writing library : libebml v1.3.9 + libmatroska v1.5.2

    Video
    ID : 1
    Format : AVC
    Format/Info : Advanced Video Codec
    Format profile : [email protected]
    Format settings, CABAC : Yes
    Format settings, RefFrames : 3 frames
    Codec ID : V_MPEG4/ISO/AVC
    Duration : 1 h 32 min
    Bit rate : 3 500 kb/s
    Width : 1 920 pixels
    Height : 1 080 pixels
    Display aspect ratio : 16:9
    Frame rate mode : Constant
    Frame rate : 24.000 FPS
    Color space : YUV
    Chroma subsampling : 4:2:0
    Bit depth : 8 bits
    Scan type : Progressive
    Bits/(Pixel*Frame) : 0.070
    Stream size : 2.26 GiB (74%)
    Default : Yes
    Forced : No
    Comment : NETFLIX BY ARGON

    Audio #1
    ID : 2
    Format : E-AC-3
    Format/Info : Enhanced Audio Coding 3
    Format settings, Endianness : Big
    Codec ID : A_EAC3
    Duration : 1 h 32 min
    Bit rate mode : Constant
    Bit rate : 384 kb/s
    Channel(s) : 6 channels
    Channel positions : Front: L C R, Side: L R, LFE
    Sampling rate : 48.0 kHz
    Frame rate : 187.500 FPS (256 SPF)
    Compression mode : Lossy
    Delay relative to video : -83 ms
    Stream size : 254 MiB (8%)
    Title : TH AC3
    Language : Thai
    Service kind : Complete Main
    Default : Yes
    Forced : No

    Audio #2
    ID : 3
    Format : E-AC-3
    Format/Info : Enhanced Audio Coding 3
    Format profile : E-AC-3+Atmos / E-AC-3
    Format settings, Endianness : Big
    Codec ID : A_EAC3
    Duration : 1 h 32 min
    Bit rate mode : Constant
    Bit rate : 768 kb/s
    Channel(s) : 15 objects / 6 channels
    Channel positions : 15 objects / Front: L C R, Side: L R, LFE
    Sampling rate : 48.0 kHz
    Frame rate : 187.500 FPS (256 SPF)
    Compression mode : Lossy
    Delay relative to video : -83 ms
    Stream size : 509 MiB (16%)
    Title : EN AC3
    Language : English
    Service kind : Complete Main
    Default : No
    Forced : No

    Text #1
    ID : 4
    Format : PGS
    Muxing mode : zlib
    Codec ID : S_HDMV/PGS
    Codec ID/Info : Picture based subtitle format used on BDs/HD-DVDs
    Duration : 1 h 31 min
    Bit rate : 409 b/s
    Count of elements : 42
    Stream size : 274 KiB (0%)
    Title : TH_PGS_Force
    Language : Thai
    Default : Yes
    Forced : No

    Text #2
    ID : 5
    Format : VobSub
    Muxing mode : zlib
    Codec ID : S_VOBSUB
    Codec ID/Info : Picture based subtitle format used on DVDs
    Duration : 1 h 31 min
    Bit rate : 193 b/s
    Count of elements : 21
    Stream size : 130 KiB (0%)
    Title : TH_VOBSUB_Force
    Language : Thai
    Default : No
    Forced : No

    Text #3
    ID : 6
    Format : PGS
    Muxing mode : zlib
    Codec ID : S_HDMV/PGS
    Codec ID/Info : Picture based subtitle format used on BDs/HD-DVDs
    Duration : 1 h 31 min
    Bit rate : 25.3 kb/s
    Count of elements : 2740
    Stream size : 16.5 MiB (1%)
    Title : TH_PGS_SUB
    Language : Thai
    Default : No
    Forced : No

    Text #4
    ID : 7
    Format : VobSub
    Muxing mode : zlib
    Codec ID : S_VOBSUB
    Codec ID/Info : Picture based subtitle format used on DVDs
    Duration : 1 h 39 min
    Bit rate : 10.8 kb/s
    Count of elements : 1370
    Stream size : 7.65 MiB (0%)
    Title : TH_VOBSUB_SUB
    Language : Thai
    Default : No
    Forced : No

    Text #5
    ID : 8
    Format : VobSub
    Muxing mode : zlib
    Codec ID : S_VOBSUB
    Codec ID/Info : Picture based subtitle format used on DVDs
    Duration : 1 h 39 min
    Bit rate : 10.8 kb/s
    Count of elements : 1370
    Stream size : 7.65 MiB (0%)
    Title : TH_VOBSUB_YELLOW_SUB
    Language : Thai
    Default : No
    Forced : No

    Text #6
    ID : 9
    Format : PGS
    Muxing mode : zlib
    Codec ID : S_HDMV/PGS
    Codec ID/Info : Picture based subtitle format used on BDs/HD-DVDs
    Duration : 1 h 27 min
    Bit rate : 55.4 kb/s
    Count of elements : 2880
    Stream size : 34.7 MiB (1%)
    Title : EN_PGS
    Language : English
    Default : No
    Forced : No


    "พร้อมคำบรรยายพิเศษ ของเสียงไทย ตามแบบฉบับของNETFLIX"









    Download: cornfile
    http://cornfile.com/xoy23ho5oofu
    Download: mekafile
    http://www.mekafile.com/dl.php?f=KD3783c1Ooi6

  2. The Following 3 Users Say Thank You to Duckload.us For This Useful Post:

    gaszolineskywalker (11-24-2019), Jodz14 (11-22-2019), noi54 (11-21-2019)

  3. #2
    Senior Member
    สมัครเมื่อ
    Jun 2014
    โพสต์
    1,347
    Thanks
    0
    Thanked 0 Times in 0 Posts
    ขอบคุณครับ

  4. #3
    Senior Member
    สมัครเมื่อ
    Oct 2012
    โพสต์
    797
    Thanks
    1,736
    Thanked 0 Times in 0 Posts
    ขอบคุณครับ

  5. #4
    Member
    สมัครเมื่อ
    Jul 2013
    โพสต์
    93
    Thanks
    0
    Thanked 0 Times in 0 Posts
    ขอบคุณครับ สำหรับหนังอบอุ่น เข้าช่วงนี้เลย

+ ตอบกลับกระทู้

ข้อมูลกระทู้

Users Browsing this Thread

ในขณะนี้มี 1 ท่านดูกระทู้อยู่. (0 สมาชิกและ 1 ผู้เยี่ยมชม)

     

กฎการโพสต์ข้อความ

  • ท่าน ไม่สามารถ ตั้งกระทู้ใหม่ได้
  • ท่าน ไม่สามารถ ตอบกระทู้ได้
  • ท่าน ไม่สามารถ แนบไฟล์ได้
  • ท่าน ไม่สามารถ แก้ไขข้อความโพสต์ได้
  • BB code สถานะ เปิด
  • Smilies สถานะ เปิด
  • [IMG] สถานะ เปิด
  • HTML สถานะ ปิด