+ ͺѺз
ػšä 1 ֧ 4 ҡ 4
  1. #1
    Administrators ٻǹ Duckload.us
    Ѥ
    Dec 2010
    ʵ
    111,263
    Thanks
    7
    Thanked 116,713 Times in 53,142 Posts

    Question []-[60 FPS] Percy Jackson: Sea of Monsters (2013) ѹ ѺҶþŻҨ - [ҡ+ѧ] [+ѧ] 1080p.BDrip.DTS-ES.60FPS




    ˹ѧѴŧҡ¢ͧԤ ᴹ ҵӹҹзͧҺ͡ (᡹ ) ͧԹҧ仪ԧзͧҨҡ ͪµɷ軡ͧ¢ͧҤ觤 ෾͹ҹͧǡ ͧ༪ԭ˹ҡѺѵҴҡ ü¤駹ѧ͹ຸ (硫ҹ ᴴ) ١ͧ෾ู (ù͹ . ѹ) ¨ҡҤáҧ仴 Фҧѹ (ѡ Ը) 䫤ͻ ҧôҢͧ (ǹ Թ) ١ͧ෾


    Duration : 1 h 46 min
    Overall bit rate : 17.8 Mb/s
    Encoded date : UTC 2019-11-21 12:59:50
    Writing application : mkvmerge v40.0.0 ('Old Town Road + Pony') 64-bit
    Writing library : libebml v1.3.9 + libmatroska v1.5.2
    Cover : Yes
    Attachments : cover

    Video
    ID : 1
    Format : AVC
    Format/Info : Advanced Video Codec
    Format profile : [email protected]
    Format settings : CABAC / 5 Ref Frames
    Format settings, CABAC : Yes
    Format settings, Reference frames : 5 frames
    Codec ID : V_MPEG4/ISO/AVC
    Duration : 1 h 46 min
    Bit rate : 15.0 Mb/s
    Width : 1 920 pixels
    Height : 816 pixels
    Display aspect ratio : 2.35:1
    Frame rate mode : Constant
    Frame rate : 59.940 (60000/1001) FPS
    Color space : YUV
    Chroma subsampling : 4:2:0
    Bit depth : 8 bits
    Scan type : Progressive
    Bits/(Pixel*Frame) : 0.160
    Stream size : 11.1 GiB (84%)
    Writing library : x264 core 146 r2538 121396c
    Encoding settings : cabac=1 / ref=5 / deblock=1:-2:-2 / analyse=0x3:0x113 / me=umh / subme=9 / psy=1 / psy_rd=1.00:0.25 / mixed_ref=1 / me_range=32 / chroma_me=1 / trellis=2 / 8x8dct=1 / cqm=0 / deadzone=6,6 / fast_pskip=1 / chroma_qp_offset=-4 / threads=12 / lookahead_threads=2 / sliced_threads=0 / nr=0 / decimate=0 / interlaced=0 / bluray_compat=0 / constrained_intra=0 / bframes=8 / b_pyramid=2 / b_adapt=2 / b_bias=0 / direct=3 / weightb=1 / open_gop=0 / weightp=2 / keyint=599 / keyint_min=60 / scenecut=40 / intra_refresh=0 / rc_lookahead=60 / rc=2pass / mbtree=1 / bitrate=15000 / ratetol=1.0 / qcomp=0.80 / qpmin=0 / qpmax=69 / qpstep=4 / cplxblur=20.0 / qblur=0.5 / vbv_maxrate=50000 / vbv_bufsize=65000 / nal_hrd=none / filler=0 / ip_ratio=1.10 / aq=1:0.50
    Language : English
    Default : Yes
    Forced : No

    Audio #1
    ID : 2
    Format : DTS ES
    Format/Info : Digital Theater Systems
    Commercial name : DTS-ES Matrix
    Codec ID : A_DTS
    Duration : 1 h 46 min
    Bit rate mode : Constant
    Bit rate : 1 509 kb/s
    Channel(s) : 6 channels
    Channel(s)_Original : 7 channels
    Channel layout : C L R Ls Rs Cb LFE
    Sampling rate : 48.0 kHz
    Frame rate : 93.750 FPS (512 SPF)
    Bit depth : 24 bits
    Compression mode : Lossy
    Delay relative to video : 11 ms
    Stream size : 1.12 GiB (8%)
    Language : English
    Default : No
    Forced : No

    Audio #2
    ID : 3
    Format : DTS
    Format/Info : Digital Theater Systems
    Codec ID : A_DTS
    Duration : 1 h 46 min
    Bit rate mode : Constant
    Bit rate : 755 kb/s
    Channel(s) : 6 channels
    Channel layout : C L R Ls Rs LFE
    Sampling rate : 48.0 kHz
    Frame rate : 93.750 FPS (512 SPF)
    Bit depth : 24 bits
    Compression mode : Lossy
    Stream size : 573 MiB (4%)
    Language : English
    Default : No
    Forced : No

    Audio #3
    ID : 4
    Format : AC-3
    Format/Info : Audio Coding 3
    Commercial name : Dolby Digital
    Codec ID : A_AC3
    Duration : 1 h 46 min
    Bit rate mode : Constant
    Bit rate : 448 kb/s
    Channel(s) : 6 channels
    Channel layout : L R C LFE Ls Rs
    Sampling rate : 48.0 kHz
    Frame rate : 31.250 FPS (1536 SPF)
    Bit depth : 16 bits
    Compression mode : Lossy
    Stream size : 340 MiB (3%)
    Language : Thai
    Service kind : Complete Main
    Default : Yes
    Forced : No

    Text #1
    ID : 5
    Format : VobSub
    Muxing mode : zlib
    Codec ID : S_VOBSUB
    Codec ID/Info : Picture based subtitle format used on DVDs
    Duration : 1 h 36 min
    Bit rate : 12.3 kb/s
    Count of elements : 1409
    Stream size : 8.45 MiB (0%)
    Language : English
    Default : No
    Forced : No

    Text #2
    ID : 6
    Format : UTF-8
    Codec ID : S_TEXT/UTF8
    Codec ID/Info : UTF-8 Plain Text
    Duration : 1 h 36 min
    Bit rate : 56 b/s
    Count of elements : 1409
    Stream size : 39.9 KiB (0%)
    Language : English
    Default : No
    Forced : No

    Text #3
    ID : 7
    Format : PGS
    Muxing mode : zlib
    Codec ID : S_HDMV/PGS
    Codec ID/Info : Picture based subtitle format used on BDs/HD-DVDs
    Duration : 1 h 36 min
    Bit rate : 56.6 kb/s
    Count of elements : 2818
    Stream size : 39.1 MiB (0%)
    Title : White
    Language : English
    Default : Yes
    Forced : No

    Text #4
    ID : 8
    Format : PGS
    Muxing mode : zlib
    Codec ID : S_HDMV/PGS
    Codec ID/Info : Picture based subtitle format used on BDs/HD-DVDs
    Duration : 1 h 36 min
    Bit rate : 56.6 kb/s
    Count of elements : 2818
    Stream size : 39.1 MiB (0%)
    Title : Yellow
    Language : English
    Default : No
    Forced : No

    Text #5
    ID : 9
    Format : VobSub
    Muxing mode : zlib
    Codec ID : S_VOBSUB
    Codec ID/Info : Picture based subtitle format used on DVDs
    Duration : 1 h 44 min
    Bit rate : 8 513 b/s
    Count of elements : 1260
    Stream size : 6.39 MiB (0%)
    Language : Thai
    Default : No
    Forced : No

    Text #6
    ID : 10
    Format : UTF-8
    Codec ID : S_TEXT/UTF8
    Codec ID/Info : UTF-8 Plain Text
    Duration : 1 h 44 min
    Bit rate : 112 b/s
    Count of elements : 1260
    Stream size : 86.4 KiB (0%)
    Language : Thai
    Default : No
    Forced : No

    Text #7
    ID : 11
    Format : PGS
    Muxing mode : zlib
    Codec ID : S_HDMV/PGS
    Codec ID/Info : Picture based subtitle format used on BDs/HD-DVDs
    Duration : 1 h 44 min
    Bit rate : 39.9 kb/s
    Count of elements : 2520
    Stream size : 30.0 MiB (0%)
    Title : White
    Language : Thai
    Default : No
    Forced : No

    Text #8
    ID : 12
    Format : PGS
    Muxing mode : zlib
    Codec ID : S_HDMV/PGS
    Codec ID/Info : Picture based subtitle format used on BDs/HD-DVDs
    Duration : 1 h 44 min
    Bit rate : 39.9 kb/s
    Count of elements : 2520
    Stream size : 30.0 MiB (0%)
    Title : Yellow
    Language : Thai
    Default : No
    Forced : No




    Download: cornfile
    http://cornfile.com/lw5fcnxgo38t
    Download: mekafile
    http://www.mekafile.com/dl.php?f=bOa5f3c1Tlcm

  2. #2
    Senior Member
    Ѥ
    Jun 2014
    ʵ
    2,579
    Thanks
    0
    Thanked 0 Times in 0 Posts
    ͺسѺ

  3. #3
    Senior Member
    Ѥ
    Dec 2011
    ʵ
    2,196
    Thanks
    0
    Thanked 0 Times in 0 Posts
    ͺس

  4. #4
    Senior Member
    Ѥ
    Jun 2012
    ʵ
    1,280
    Thanks
    0
    Thanked 1 Time in 1 Post
    ͺسѺ

šз

Users Browsing this Thread

㹢й 1 ҹ١з. (0 Ҫԡ 1 )

     

ʵͤ

  • ҹ ö 駡з
  • ҹ ö ͺз
  • ҹ ö
  • ҹ ö 䢢ͤʵ