+ ตอบกลับกระทู้
สรุปผลการค้นหา 1 ถึง 6 จากทั้งหมด 6
  1. #1
    Administrators รูปส่วนตัว Duckload.us
    สมัครเมื่อ
    Dec 2010
    โพสต์
    108,513
    Thanks
    7
    Thanked 113,462 Times in 52,350 Posts

    Question [ฝรั่ง]-[Netflix] The Irishman (2019) คนใหญ่ไอริช-WEB-DL.H.264.1080p. [Master]-[พากย์ไทย+อังกฤษ 5.1 บรรยายไทย PGS]




    The Irishman



    Rating: 8.7/10 Year: 2019 Genres: Biography / Crime / Drama Runtime: 209 min Language: English / Italian / Latin Director: Martin Scorsese Writers: Charles Brandt / Steven Zaillian Cast: Robert De Niro / Al Pacino / Joe Pesciโ€ฆ Plot:

    Frank "The Irishman" Sheeran is a man with a lot on his mind. The former labor union high official and hitman, learned to kill serving in Italy during the Second World War. He now looks back on his life and the hits that defined his mob career, maintaining connections with the Bufalino crime family. In particular, the part he claims to have played in the disappearance of his life-long friend, Jimmy Hoffa, the former president of the International Brotherhood of Teamsters, who mysteriously vanished in late July 1975 at the age of 62. Written by bcarruthers-76500


    มือปืนแฟรงค์ เชียรัน นึกย้อนไปถึงความลับต่างๆ ที่รักษาไว้เมื่อครั้งเป็นสมาชิกผู้ภักดีของแก๊งบัฟฟ าลิโนในภาพยนตร์ที่ได้รับคำชื่นชมอย่างล้นหลามของมาร ์ติน

    Format : Matroska
    Format version : Version 4
    File size : 7.55 GiB
    Duration : 3 h 29 min
    Overall bit rate : 5 160 kb/s
    Encoded date : UTC 2019-11-27 10:02:24
    Writing application : mkvmerge v40.0.0 ('Old Town Road + Pony') 64-bit
    Writing library : libebml v1.3.9 + libmatroska v1.5.2

    Video
    ID : 1
    Format : AVC
    Format/Info : Advanced Video Codec
    Format profile : [email protected]
    Format settings : CABAC / 3 Ref Frames
    Format settings, CABAC : Yes
    Format settings, Reference frames : 3 frames
    Codec ID : V_MPEG4/ISO/AVC
    Duration : 3 h 29 min
    Bit rate : 3 738 kb/s
    Width : 1 920 pixels
    Height : 1 080 pixels
    Display aspect ratio : 16:9
    Frame rate mode : Constant
    Frame rate : 24.000 FPS
    Color space : YUV
    Chroma subsampling : 4:2:0
    Bit depth : 8 bits
    Scan type : Progressive
    Bits/(Pixel*Frame) : 0.075
    Stream size : 5.47 GiB (72%)
    Default : Yes
    Forced : No

    Audio #1
    ID : 2
    Format : E-AC-3 JOC
    Format/Info : Enhanced AC-3 with Joint Object Coding
    Commercial name : Dolby Digital Plus with Dolby Atmos
    Codec ID : A_EAC3
    Duration : 3 h 29 min
    Bit rate mode : Constant
    Bit rate : 768 kb/s
    Channel(s) : 6 channels
    Channel layout : L R C LFE Ls Rs
    Sampling rate : 48.0 kHz
    Frame rate : 31.250 FPS (1536 SPF)
    Compression mode : Lossy
    Delay relative to video : -83 ms
    Stream size : 1.12 GiB (15%)
    Language : English
    Service kind : Complete Main
    Default : Yes
    Forced : No
    Complexity index : 16
    Number of dynamic objects : 15
    Bed channel count : 1 channel
    Bed channel configuration : LFE

    Audio #2
    ID : 3
    Format : E-AC-3
    Format/Info : Enhanced AC-3
    Commercial name : Dolby Digital Plus
    Codec ID : A_EAC3
    Duration : 3 h 29 min
    Bit rate mode : Constant
    Bit rate : 640 kb/s
    Channel(s) : 6 channels
    Channel layout : L R C LFE Ls Rs
    Sampling rate : 48.0 kHz
    Frame rate : 31.250 FPS (1536 SPF)
    Compression mode : Lossy
    Delay relative to video : -83 ms
    Stream size : 959 MiB (12%)
    Language : Thai
    Service kind : Complete Main
    Default : No
    Forced : No

    Text
    ID : 4
    Format : PGS
    Muxing mode : zlib
    Codec ID : S_HDMV/PGS
    Codec ID/Info : Picture based subtitle format used on BDs/HD-DVDs
    Duration : 3 h 28 min
    Bit rate : 26.5 kb/s
    Count of elements : 5912
    Stream size : 39.5 MiB (1%)
    Language : Thai
    Default : Yes
    Forced : No






    7.5 GB
    Download: cornfile
    http://cornfile.com/agxddxf8rb79
    Download: mekafile
    http://www.mekafile.com/dl.php?f=utc78ec23vUo

  2. The Following 7 Users Say Thank You to Duckload.us For This Useful Post:

    apichartdear (11-27-2019), bigbang06 (11-28-2019), jackjangri (11-30-2019), noi54 (12-03-2019), smakha (11-28-2019), ssuwanees (11-29-2019), Tatum03 (11-27-2019)

  3. #2
    Senior Member
    สมัครเมื่อ
    Jun 2014
    โพสต์
    1,337
    Thanks
    0
    Thanked 0 Times in 0 Posts
    ขอบคุณครับ

  4. #3
    Senior Member
    สมัครเมื่อ
    Oct 2013
    ที่อยู่
    Thailand
    โพสต์
    1,175
    Thanks
    1,050
    Thanked 0 Times in 0 Posts
    ขอบคุณมาก

  5. #4
    Senior Member
    สมัครเมื่อ
    Jul 2012
    โพสต์
    6,241
    Thanks
    0
    Thanked 0 Times in 0 Posts
    ขอบคุณมากจ้า

  6. #5
    Member
    สมัครเมื่อ
    Jul 2013
    โพสต์
    85
    Thanks
    0
    Thanked 0 Times in 0 Posts
    ขอบคุณครับผม

  7. #6
    Junior Member
    สมัครเมื่อ
    Feb 2019
    โพสต์
    17
    Thanks
    0
    Thanked 0 Times in 0 Posts
    ขอบคุณครับ

+ ตอบกลับกระทู้

ข้อมูลกระทู้

Users Browsing this Thread

ในขณะนี้มี 1 ท่านดูกระทู้อยู่. (0 สมาชิกและ 1 ผู้เยี่ยมชม)

     

กฎการโพสต์ข้อความ

  • ท่าน ไม่สามารถ ตั้งกระทู้ใหม่ได้
  • ท่าน ไม่สามารถ ตอบกระทู้ได้
  • ท่าน ไม่สามารถ แนบไฟล์ได้
  • ท่าน ไม่สามารถ แก้ไขข้อความโพสต์ได้
  • BB code สถานะ เปิด
  • Smilies สถานะ เปิด
  • [IMG] สถานะ เปิด
  • HTML สถานะ ปิด