+ ตอบกลับกระทู้
สรุปผลการค้นหา 1 ถึง 2 จากทั้งหมด 2
  1. #1
    Administrators รูปส่วนตัว Duckload.us
    สมัครเมื่อ
    Dec 2010
    โพสต์
    108,468
    Thanks
    7
    Thanked 113,452 Times in 52,348 Posts

    Question (ซับไทยแปล) Rambo Last Blood 2019 1080p KORSUB HDRip x264 พากย์:Eng 2.0][SUB:ซับไทยแปล][1080p]



    เรื่องย่อ : เรื่องราวที่ จอห์น แรมโบ้ ต้องรับมือกับโรคเครียดรุนแรงหลังเจอเหตุการณ์สะเทือ นขวัญ (PTSD) ขณะที่เขาพักอาศัยอยู่ที่ฟาร์มเลี้ยงสัตว์ในแอริโซนา เขาพยายามที่จะยืนหยัดด้วยการทำงานแบบชิลล์ ๆ ที่ไหนก็ตามที่เขาจะสามารถทำได้ แล้วไม่นานเพื่อนและผู้จัดการทรัพย์สินของเขา มาเรีย ก็มาบอกให้เขารู้ว่าหลานสาวของเธอหายตัวไปหลังจากเดิ นทางไปเม็กซิโกเพื่อไปร่วมงานปาร์ตี้ ดังนั้นจอห์นจึงตัดสินใจออกเดินทางไปยังแดนใต้เพื่อต ามหาเด็กสาวคนนั้น แต่แล้วการสืบหามันก็ได้พาเขาดำดิ่งลงไปสู่เส้นทางนร กที่แสนอันตราย แรมโบ้ต้องเปิดโปงวงจรค้าประเวณีผิดกฏหมาย เขาต้องมาร่วมมือกับนักข่าวคนหนึ่งที่น้องสาวของเขาก ็ถูกลักพาตัวไปเช่นกัน แรมโบ้ต้องปรับใช้ทักษะทั้งหมดที่เขามีเพื่อปกป้องเด ็กสาวเหล่านั้น แล้วก็เพื่อที่จะปราบแก๊งค์อาชญากรชั่วร้ายแก๊งค์นั้ นให้สิ้นซาก!!!


    Format : Matroska
    Format version : Version 4
    File size : 3.52 GiB
    Duration : 1 h 30 min
    Overall bit rate : 5 570 kb/s
    Movie name : Rambo.Last.Blood.2019.1080p.KORSUB.HDRip.x264.AAC2 .0-STUTTERSHIT
    Encoded date : UTC 2019-11-27 06:17:29
    Writing application : mkvmerge v40.0.0 ('Old Town Road + Pony') 64-bit
    Writing library : libebml v1.3.9 + libmatroska v1.5.2

    Video
    ID : 3
    Format : AVC
    Format/Info : Advanced Video Codec
    Format profile : [email protected]
    Format settings : CABAC / 5 Ref Frames
    Format settings, CABAC : Yes
    Format settings, Reference frames : 5 frames
    Codec ID : V_MPEG4/ISO/AVC
    Duration : 1 h 30 min
    Bit rate : 5 167 kb/s
    Width : 1 920 pixels
    Height : 800 pixels
    Display aspect ratio : 2.40:1
    Frame rate mode : Constant
    Frame rate : 58.823 FPS
    Color space : YUV
    Chroma subsampling : 4:2:0
    Bit depth : 8 bits
    Scan type : Progressive
    Bits/(Pixel*Frame) : 0.057
    Stream size : 3.26 GiB (93%)
    Title : EVO
    Default : Yes
    Forced : No
    Color range : Limited
    Color primaries : BT.709
    Transfer characteristics : BT.709
    Matrix coefficients : BT.709

    Audio
    ID : 2
    Format : AC-3
    Format/Info : Audio Coding 3
    Commercial name : Dolby Digital
    Codec ID : A_AC3
    Duration : 1 h 30 min
    Bit rate mode : Constant
    Bit rate : 384 kb/s
    Channel(s) : 2 channels
    Channel layout : L R
    Sampling rate : 48.0 kHz
    Frame rate : 31.250 FPS (1536 SPF)
    Bit depth : 16 bits
    Compression mode : Lossy
    Delay relative to video : 80 ms
    Stream size : 248 MiB (7%)
    Title : EVO
    Language : English
    Service kind : Complete Main
    Default : Yes
    Forced : No

    Text #1
    ID : 1
    Format : UTF-8
    Codec ID : S_TEXT/UTF8
    Codec ID/Info : UTF-8 Plain Text
    Duration : 1 h 19 min
    Bit rate : 8 b/s
    Count of elements : 182
    Stream size : 4.81 KiB (0%)
    Language : English
    Default : Yes
    Forced : Yes

    Text #2
    ID : 4
    Format : VobSub
    Muxing mode : zlib
    Codec ID : S_VOBSUB
    Codec ID/Info : Picture based subtitle format used on DVDs
    Duration : 1 h 29 min
    Bit rate : 5 431 b/s
    Count of elements : 688
    Stream size : 3.47 MiB (0%)
    Language : Thai
    Default : No
    Forced : No

    Text #3
    ID : 5
    Format : PGS
    Muxing mode : zlib
    Codec ID : S_HDMV/PGS
    Codec ID/Info : Picture based subtitle format used on BDs/HD-DVDs
    Duration : 1 h 29 min
    Bit rate : 24.1 kb/s
    Count of elements : 1376
    Stream size : 15.4 MiB (0%)
    Language : Thai
    Default : No
    Forced : No

    Text #4
    ID : 6
    Format : PGS
    Muxing mode : zlib
    Codec ID : S_HDMV/PGS
    Codec ID/Info : Picture based subtitle format used on BDs/HD-DVDs
    Duration : 1 h 29 min
    Bit rate : 23.4 kb/s
    Count of elements : 1376
    Stream size : 15.0 MiB (0%)
    Language : Thai
    Default : No
    Forced : No










    1080p+SUB:TH credit: samecm
    Download: cornfile
    http://cornfile.com/fyo43s1w00mz
    Download: mekafile
    http://www.mekafile.com/dl.php?f=Cs8cd0c25KJN

    1080p+THR
    Download: cornfile
    http://cornfile.com/h9dd4qudwepm
    Download: mekafile
    http://www.mekafile.com/dl.php?f=VT5edfc2188i

  2. The Following 4 Users Say Thank You to Duckload.us For This Useful Post:

    amorn wichian (11-28-2019), Erik (11-28-2019), noi54 (12-03-2019), Tellmon (11-29-2019)

  3. #2
    Senior Member
    สมัครเมื่อ
    Jun 2014
    โพสต์
    1,340
    Thanks
    0
    Thanked 0 Times in 0 Posts
    ขอบคุณครับ

+ ตอบกลับกระทู้

ข้อมูลกระทู้

Users Browsing this Thread

ในขณะนี้มี 1 ท่านดูกระทู้อยู่. (0 สมาชิกและ 1 ผู้เยี่ยมชม)

     

กฎการโพสต์ข้อความ

  • ท่าน ไม่สามารถ ตั้งกระทู้ใหม่ได้
  • ท่าน ไม่สามารถ ตอบกระทู้ได้
  • ท่าน ไม่สามารถ แนบไฟล์ได้
  • ท่าน ไม่สามารถ แก้ไขข้อความโพสต์ได้
  • BB code สถานะ เปิด
  • Smilies สถานะ เปิด
  • [IMG] สถานะ เปิด
  • HTML สถานะ ปิด