+ ตอบกลับกระทู้
สรุปผลการค้นหา 1 ถึง 2 จากทั้งหมด 2
  1. #1
    Administrators รูปส่วนตัว Duckload.us
    สมัครเมื่อ
    Dec 2010
    โพสต์
    132,390
    Thanks
    7
    Thanked 136,017 Times in 60,140 Posts

    Lightbulb [จาก NETFLIX] The Big Bang Theory (2007-2019) เดอะบิกแบงทีออรี Season1-12 [ประเทศ:อังกฤษ] [1080p][เสียงอังกฤษAC-3][h264][ซับไทยต้นฉบับNETFLIX PGS+Vobsub ]




    Code:
    Format                         : Matroska
    Format version                 : Version 4 / Version 2
    File size                      : 597 MiB
    Duration                       : 20 min 24 s
    Overall bit rate               : 4 089 kb/s
    Movie name                     : [email protected]
    Encoded date                   : UTC 2019-11-25 13:29:14
    Writing application            : mkvmerge v39.0.0 ('In The Waiting Line') 64-bit
    Writing library                : libebml v1.3.9 + libmatroska v1.5.2
    
    Video
    ID                             : 1
    Format                         : AVC
    Format/Info                    : Advanced Video Codec
    Format profile                 : [email protected]
    Format settings, CABAC         : Yes
    Format settings, RefFrames     : 3 frames
    Codec ID                       : V_MPEG4/ISO/AVC
    Duration                       : 20 min 24 s
    Bit rate                       : 3 412 kb/s
    Width                          : 1 920 pixels
    Height                         : 1 080 pixels
    Display aspect ratio           : 16:9
    Frame rate mode                : Constant
    Frame rate                     : 23.976 (24000/1001) FPS
    Color space                    : YUV
    Chroma subsampling             : 4:2:0
    Bit depth                      : 8 bits
    Scan type                      : Progressive
    Bits/(Pixel*Frame)             : 0.069
    Stream size                    : 498 MiB (83%)
    Default                        : Yes
    Forced                         : No
    Comment                        : NETFLIX BY ARGON
    
    Audio
    ID                             : 2
    Format                         : E-AC-3
    Format/Info                    : Enhanced Audio Coding 3
    Format settings, Endianness    : Big
    Codec ID                       : A_EAC3
    Duration                       : 20 min 24 s
    Bit rate mode                  : Constant
    Bit rate                       : 640 kb/s
    Channel(s)                     : 6 channels
    Channel positions              : Front: L C R, Side: L R, LFE
    Sampling rate                  : 48.0 kHz
    Frame rate                     : 187.500 FPS (256 SPF)
    Compression mode               : Lossy
    Delay relative to video        : -41 ms
    Stream size                    : 93.5 MiB (16%)
    Title                          : EN AC3
    Language                       : English
    Service kind                   : Complete Main
    Default                        : Yes
    Forced                         : No
    
    Text #1
    ID                             : 3
    Format                         : PGS
    Muxing mode                    : zlib
    Codec ID                       : S_HDMV/PGS
    Codec ID/Info                  : Picture based subtitle format used on BDs/HD-DVDs
    Duration                       : 20 min 24 s
    Bit rate                       : 36.0 kb/s
    Count of elements              : 594
    Stream size                    : 5.25 MiB (1%)
    Title                          : TH_PGS
    Language                       : Thai
    Default                        : Yes
    Forced                         : No
    
    Text #2
    ID                             : 4
    Format                         : VobSub
    Muxing mode                    : zlib
    Codec ID                       : S_VOBSUB
    Codec ID/Info                  : Picture based subtitle format used on DVDs
    Duration                       : 20 min 24 s
    Bit rate                       : 17.0 kb/s
    Count of elements              : 297
    Stream size                    : 2.49 MiB (0%)
    Title                          : TH_VOBSUB
    Language                       : Thai
    Default                        : No
    Forced                         : No
    
    Text #3
    ID                             : 5
    Format                         : VobSub
    Muxing mode                    : zlib
    Codec ID                       : S_VOBSUB
    Codec ID/Info                  : Picture based subtitle format used on DVDs
    Duration                       : 20 min 24 s
    Bit rate                       : 17.0 kb/s
    Count of elements              : 297
    Stream size                    : 2.49 MiB (0%)
    Title                          : TH_VOBSUB_YELLOW
    Language                       : Thai
    Default                        : No
    Forced                         : No







    1
    http://www.filecondo.com/dl.php?f=Odc2e91IAX7T
    2
    http://www.filecondo.com/dl.php?f=z59a531IAXC9
    3
    http://www.filecondo.com/dl.php?f=C5ed191IAXQl
    4
    http://www.filecondo.com/dl.php?f=bee4a91IAYj2
    5
    http://www.filecondo.com/dl.php?f=mf95271IAZ1P
    6
    http://www.filecondo.com/dl.php?f=654f7a1IB0ch
    7
    http://www.filecondo.com/dl.php?f=l343791IB0Xy
    8
    http://www.filecondo.com/dl.php?f=n349ac1IB2iV
    9
    http://www.filecondo.com/dl.php?f=4932b61IB2KK
    10
    http://www.filecondo.com/dl.php?f=M1f90f1IB3qI
    11
    http://www.filecondo.com/dl.php?f=71a2941IB7gD
    12
    http://www.filecondo.com/dl.php?f=ce6bda1IBgJZ

  2. The Following 5 Users Say Thank You to Duckload.us For This Useful Post:

    gaszolineskywalker (06-20-2020), JOMMY_2 (12-02-2019), kappa (09-06-2021), richychippy (01-02-2021), rthrlimited (05-18-2020)

  3. #2
    Senior Member
    สมัครเมื่อ
    Oct 2012
    โพสต์
    1,643
    Thanks
    2,572
    Thanked 0 Times in 0 Posts
    ขอบคุณมากครับ ภาพชัด เสียงชัด ซับชัด ครบทุกตอน

+ ตอบกลับกระทู้

ข้อมูลกระทู้

Users Browsing this Thread

ในขณะนี้มี 1 ท่านดูกระทู้อยู่. (0 สมาชิกและ 1 ผู้เยี่ยมชม)

     

กฎการโพสต์ข้อความ

  • ท่าน ไม่สามารถ ตั้งกระทู้ใหม่ได้
  • ท่าน ไม่สามารถ ตอบกระทู้ได้
  • ท่าน ไม่สามารถ แนบไฟล์ได้
  • ท่าน ไม่สามารถ แก้ไขข้อความโพสต์ได้
  • BB code สถานะ เปิด
  • Smilies สถานะ เปิด
  • [IMG] สถานะ เปิด
  • HTML สถานะ ปิด