+ ตอบกลับกระทู้
สรุปผลการค้นหา 1 ถึง 4 จากทั้งหมด 4
  1. #1
    Administrators รูปส่วนตัว Duckload.us
    สมัครเมื่อ
    Dec 2010
    โพสต์
    108,513
    Thanks
    7
    Thanked 113,463 Times in 52,350 Posts

    Question [ฝรั่ง]-[* ใหม่ *] It Chapter Two (2019) โผล่จากนรก 2 - [พากย์ไทยมาสเตอร์ + อังกฤษ 5.1 บรรยายไทยและอังกฤษ PGS] - WEB-DL.H.264.1080p. [Master From iTunes]




    เพราะตัวตลกปีศาจเพนนี่ไวซ์จะกลับมาเยือนเมืองเดอร์ร ี่ รัฐเมนในทุก ๆ 27 ปี It: Chapter Two - อิท โผล่จากนรก 2 จึงพาเหล่าตัวละครที่แยกย้ายจากกันไปนานกลับมารวมตัว กันอีกครั้งในวัยผู้ใหญ่ ซึ่งนับเป็นเวลากว่า 3 ศตวรรษหลังจากเหตุการณ์สยองเกิดขึ้นกับพวกเขาตอนเด็ก ในภาพยนตร์ภาคแรก สานต่อความสำเร็จจาก IT เมื่อปี 2017 โดยฝีมือกำกับของ แอนดี้ มุสชีเอตติ ผู้พาภาพยนตร์กวาดรายได้ทั่วโลกสูงถึง 700 ล้านเหรียญสหรัฐ ในภาคต่อนี้ได้ตัวนักแสดงมากฝีมือมากมายมารับบทเป็น กลุ่มขี้แพ้ ในวัยผู้ใหญ่ นำโดยผู้เข้าชิงรางวัลออสการ์ เจสสิก้า แชสเทน (ภาพยนตร์ Zero Dark Thirty, Mama) รับบท เบเวอร์ลี่, เจมส์ แม็คอะวอย (ภาพยนตร์ Split, Glass) รับบท บิล, บิล เฮเดอร์ (ซีรีส์โทรทัศน์ Barry, The Skeleton Twins) รับบท ริชชี่, ไอเซห์ มุสตาฟา (ภาพยนตร์โทรทัศน์ Shadowhunters: The Mortal Instruments) รับบท ไมค์, เจย์ ไรอัน (ภาพยนตร์โทรทัศน์ Mary Kills People) รับบท เบน, เจมส์ แรนซัน (ซีรีส์ The Wire) รับบท เอ็ดดี้ และแอนดี้ บีน (ภาพยนตร์ Allegiant, Power) รับบท สแตนลีย์ ร่วมด้วยทีมนักแสดงเด็กหน้าเก่าผู้กลับมารับบทสมาชิก กลุ่มขี้แพ้ นำโดย โซเฟีย ลิลลิส รับบท เบเวอร์ลี่, แจเดน มาร์เทล รับบท บิล, ฟินน์ วูล์ฟฮาร์ด รับบท ริชชี่, โชเซน จาคอบส์ รับบท ไมค์, เจเรมี เรย์ เทย์เลอร์ รับบท เบน, แจ็ค ดีแลน เกรเซอร์ รับบท เอ็ดดี้, ไวแอตต์ โอเลฟฟ์ รับบท สแตนลีย์ รวมถึงนักแสดงตัวหลักที่ขาดไม่ได้เลยก็คือ บิล ซาร์สการ์ด ที่กลับมาทวงตำแหน่งตัวตลกปีศาจในตำนาน เพนนี่ไวซ์...!!!


    Format : Matroska
    Format version : Version 4
    File size : 6.03 GiB
    Duration : 2 h 49 min
    Overall bit rate : 5 096 kb/s
    Encoded date : UTC 2019-12-01 18:06:00
    Writing application : mkvmerge v40.0.0 ('Old Town Road + Pony') 64-bit
    Writing library : libebml v1.3.9 + libmatroska v1.5.2
    Cover : Yes
    Attachments : cover.jpg

    Video
    ID : 1
    Format : AVC
    Format/Info : Advanced Video Codec
    Format profile : [email protected]
    Format settings : CABAC / 5 Ref Frames
    Format settings, CABAC : Yes
    Format settings, Reference frames : 5 frames
    Codec ID : V_MPEG4/ISO/AVC
    Duration : 2 h 49 min
    Bit rate : 4 555 kb/s
    Width : 1 920 pixels
    Height : 804 pixels
    Display aspect ratio : 2.40:1
    Frame rate mode : Constant
    Frame rate : 23.976 (24000/1001) FPS
    Color space : YUV
    Chroma subsampling : 4:2:0
    Bit depth : 8 bits
    Scan type : Progressive
    Bits/(Pixel*Frame) : 0.123
    Stream size : 5.39 GiB (89%)
    Language : English
    Default : Yes
    Forced : No
    Color range : Limited
    Color primaries : BT.709
    Transfer characteristics : BT.709
    Matrix coefficients : BT.709

    Audio #1
    ID : 2
    Format : AC-3
    Format/Info : Audio Coding 3
    Commercial name : Dolby Digital
    Codec ID : A_AC3
    Duration : 2 h 49 min
    Bit rate mode : Constant
    Bit rate : 384 kb/s
    Channel(s) : 6 channels
    Channel layout : L R C LFE Ls Rs
    Sampling rate : 48.0 kHz
    Frame rate : 31.250 FPS (1536 SPF)
    Compression mode : Lossy
    Delay relative to video : -42 ms
    Stream size : 465 MiB (8%)
    Title : Eng 5.1
    Language : English
    Service kind : Complete Main
    Default : Yes
    Forced : No

    Audio #2
    ID : 3
    Format : AAC LC
    Format/Info : Advanced Audio Codec Low Complexity
    Codec ID : A_AAC-2
    Duration : 2 h 49 min
    Bit rate : 127 kb/s
    Channel(s) : 2 channels
    Channel layout : L R
    Sampling rate : 48.0 kHz
    Frame rate : 46.875 FPS (1024 SPF)
    Compression mode : Lossy
    Delay relative to video : -42 ms
    Stream size : 154 MiB (2%)
    Title : Thai Master
    Language : Thai
    Default : No
    Forced : No

    Text #1
    ID : 4
    Format : PGS
    Muxing mode : zlib
    Codec ID : S_HDMV/PGS
    Codec ID/Info : Picture based subtitle format used on BDs/HD-DVDs
    Duration : 2 h 44 min
    Bit rate : 30.9 kb/s
    Count of elements : 5628
    Stream size : 36.4 MiB (1%)
    Title : Eng PGS
    Language : English
    Default : Yes
    Forced : No

    Text #2
    ID : 5
    Format : PGS
    Muxing mode : zlib
    Codec ID : S_HDMV/PGS
    Codec ID/Info : Picture based subtitle format used on BDs/HD-DVDs
    Duration : 2 h 48 min
    Bit rate : 23.9 kb/s
    Count of elements : 4614
    Stream size : 28.9 MiB (0%)
    Title : Thai PGS
    Language : Thai
    Default : No
    Forced : No





    Download: cornfile
    http://cornfile.com/b14jv9rebit5
    Download: mekafile
    http://www.mekafile.com/dl.php?f=9o97a4c2iAKX

  2. The Following 5 Users Say Thank You to Duckload.us For This Useful Post:

    apichartdear (12-02-2019), bigbang06 (12-02-2019), Jodz14 (12-03-2019), NaiWan (12-03-2019), noi54 (12-03-2019)

  3. #2
    Senior Member
    สมัครเมื่อ
    Dec 2013
    โพสต์
    1,837
    Thanks
    3,776
    Thanked 0 Times in 0 Posts
    ขอบคุณครับ...

  4. #3
    Senior Member
    สมัครเมื่อ
    Jul 2014
    โพสต์
    172
    Thanks
    5
    Thanked 0 Times in 0 Posts
    ขอบคุณมากครับ

  5. #4
    Senior Member
    สมัครเมื่อ
    Jun 2014
    โพสต์
    1,337
    Thanks
    0
    Thanked 0 Times in 0 Posts
    ขอบคุณครับ

+ ตอบกลับกระทู้

ข้อมูลกระทู้

Users Browsing this Thread

ในขณะนี้มี 1 ท่านดูกระทู้อยู่. (0 สมาชิกและ 1 ผู้เยี่ยมชม)

     

กฎการโพสต์ข้อความ

  • ท่าน ไม่สามารถ ตั้งกระทู้ใหม่ได้
  • ท่าน ไม่สามารถ ตอบกระทู้ได้
  • ท่าน ไม่สามารถ แนบไฟล์ได้
  • ท่าน ไม่สามารถ แก้ไขข้อความโพสต์ได้
  • BB code สถานะ เปิด
  • Smilies สถานะ เปิด
  • [IMG] สถานะ เปิด
  • HTML สถานะ ปิด