+ ตอบกลับกระทู้
สรุปผลการค้นหา 1 ถึง 2 จากทั้งหมด 2
  1. #1
    Administrators รูปส่วนตัว Duckload.us
    สมัครเมื่อ
    Dec 2010
    โพสต์
    108,456
    Thanks
    7
    Thanked 113,402 Times in 52,331 Posts

    Angry Rambo Last Blood 2019 1080p BluRay x264 DTS-HDMA 5 1 mkv [พากย์:Eng DTS-HD.5.1][SUB:ซับไทยแปล]



    การปิดตำนานครั้งยิ่งใหญ่เกือบ 40 ปีของ 'จอห์น แรมโบ้' นักรบเดนตายด้วยภารกิจโค่นทรชนที่เดือดกว่า โหดกว่า ระห่ำกว่าเก่า “ซิลเวสเตอร์ สตอลโลน” กลับมาสวมบทเป็น แรมโบ้ อีกครั้งในรอบ 10 ปี

    ถ้าพวกมันต้องการสงคราม เขาจะจัดให้สาสม! พบการกลับมาของโคตรนักรบเดนตาย

    Format : Matroska
    Format version : Version 4
    File size : 5.61 GiB
    Duration : 1 h 41 min
    Overall bit rate mode : Variable
    Overall bit rate : 7 943 kb/s
    Movie name : Rambo Last Blood 2019 1080p BluRay x264 DTS - 5 1 KINGDOM-RG
    Encoded date : UTC 2019-12-02 04:35:22
    Writing application : mkvmerge v40.0.0 ('Old Town Road + Pony') 64-bit
    Writing library : libebml v1.3.9 + libmatroska v1.5.2

    Video
    ID : 1
    Format : AVC
    Format/Info : Advanced Video Codec
    Format profile : [email protected]
    Format settings : CABAC / 4 Ref Frames
    Format settings, CABAC : Yes
    Format settings, Reference frames : 4 frames
    Codec ID : V_MPEG4/ISO/AVC
    Duration : 1 h 41 min
    Bit rate mode : Variable
    Bit rate : 4 095 kb/s
    Maximum bit rate : 62.5 Mb/s
    Width : 1 920 pixels
    Height : 800 pixels
    Display aspect ratio : 2.40:1
    Frame rate mode : Constant
    Frame rate : 24.000 FPS
    Color space : YUV
    Chroma subsampling : 4:2:0
    Bit depth : 8 bits
    Scan type : Progressive
    Bits/(Pixel*Frame) : 0.111
    Stream size : 2.89 GiB (52%)
    Writing library : x264 core 157 r2935 545de2f
    Encoding settings : cabac=1 / ref=3 / deblock=1:-1:-1 / analyse=0x3:0x113 / me=hex / subme=7 / psy=1 / psy_rd=1.00:0.15 / mixed_ref=1 / me_range=16 / chroma_me=1 / trellis=1 / 8x8dct=1 / cqm=0 / deadzone=21,11 / fast_pskip=1 / chroma_qp_offset=-3 / threads=12 / lookahead_threads=2 / sliced_threads=0 / nr=0 / decimate=1 / interlaced=0 / bluray_compat=0 / constrained_intra=0 / bframes=3 / b_pyramid=2 / b_adapt=1 / b_bias=0 / direct=1 / weightb=1 / open_gop=0 / weightp=2 / keyint=240 / keyint_min=24 / scenecut=40 / intra_refresh=0 / rc_lookahead=40 / rc=2pass / mbtree=1 / bitrate=4095 / ratetol=1.0 / qcomp=0.60 / qpmin=0 / qpmax=69 / qpstep=4 / cplxblur=20.0 / qblur=0.5 / vbv_maxrate=62500 / vbv_bufsize=62500 / nal_hrd=vbr / filler=0 / ip_ratio=1.40 / aq=1:1.00
    Default : Yes
    Forced : No
    Color range : Limited
    Color primaries : BT.709
    Transfer characteristics : BT.709
    Matrix coefficients : BT.709

    Audio
    ID : 2
    Format : DTS XLL
    Format/Info : Digital Theater Systems
    Commercial name : DTS-HD Master Audio
    Codec ID : A_DTS
    Duration : 1 h 41 min
    Bit rate mode : Variable
    Bit rate : 3 837 kb/s
    Channel(s) : 6 channels
    Channel layout : C L R Ls Rs LFE
    Sampling rate : 48.0 kHz
    Frame rate : 93.750 FPS (512 SPF)
    Bit depth : 24 bits
    Compression mode : Lossless
    Stream size : 2.71 GiB (48%)
    Language : English
    Default : Yes
    Forced : No

    Text #1
    ID : 3
    Format : PGS
    Muxing mode : zlib
    Codec ID : S_HDMV/PGS
    Codec ID/Info : Picture based subtitle format used on BDs/HD-DVDs
    Duration : 1 h 29 min
    Bit rate : 23.9 kb/s
    Count of elements : 1378
    Stream size : 15.4 MiB (0%)
    Language : Thai
    Default : Yes
    Forced : No

    Text #2
    ID : 4
    Format : PGS
    Muxing mode : zlib
    Codec ID : S_HDMV/PGS
    Codec ID/Info : Picture based subtitle format used on BDs/HD-DVDs
    Duration : 1 h 29 min
    Bit rate : 24.7 kb/s
    Count of elements : 1378
    Stream size : 15.9 MiB (0%)
    Language : Thai
    Default : No
    Forced : No

    Menu
    00:00:00.000 : en:Chapter 1
    00:07:53.416 : en:Chapter 2
    00:14:10.416 : en:Chapter 3
    00:21:30.083 : en:Chapter 4
    00:30:17.416 : en:Chapter 5
    00:41:13.416 : en:Chapter 6
    00:51:15.750 : en:Chapter 7
    00:57:20.416 : en:Chapter 8
    01:08:21.750 : en:Chapter 9
    01:16:52.416 : en:Chapter 10
    01:25:36.083 : en:Chapter 11
    01:33:57.416 : en:Chapter 12






    credit: samecm
    ภาพชัด ซับมันกว่าในโรง ให้9/10
    5.6 GB
    Download: cornfile
    http://cornfile.com/8pqzhbj4l5h4
    Download: mekafile
    meka อัพไม่ได้ครับ หนังค่าย M

  2. The Following 3 Users Say Thank You to Duckload.us For This Useful Post:

    jackjangri (12-03-2019), mettset (เมื่อวานนี้), noi54 (12-04-2019)

  3. #2
    Senior Member
    สมัครเมื่อ
    Jun 2014
    โพสต์
    1,340
    Thanks
    0
    Thanked 0 Times in 0 Posts
    ขอบคุณครับ

+ ตอบกลับกระทู้

ข้อมูลกระทู้

Users Browsing this Thread

ในขณะนี้มี 2 ท่านดูกระทู้อยู่. (1 สมาชิกและ 1 ผู้เยี่ยมชม)

  1. fuji5218

กฎการโพสต์ข้อความ

  • ท่าน ไม่สามารถ ตั้งกระทู้ใหม่ได้
  • ท่าน ไม่สามารถ ตอบกระทู้ได้
  • ท่าน ไม่สามารถ แนบไฟล์ได้
  • ท่าน ไม่สามารถ แก้ไขข้อความโพสต์ได้
  • BB code สถานะ เปิด
  • Smilies สถานะ เปิด
  • [IMG] สถานะ เปิด
  • HTML สถานะ ปิด