+ ตอบกลับกระทู้
สรุปผลการค้นหา 1 ถึง 3 จากทั้งหมด 3
  1. #1
    Administrators รูปส่วนตัว Duckload.us
    สมัครเมื่อ
    Dec 2010
    โพสต์
    109,958
    Thanks
    7
    Thanked 115,387 Times in 52,782 Posts

    Question [ฝรั่ง]-Abominable เอเวอเรสต์มนุษย์หิมะเพื่อนรัก 2019 [1080p][พากย์ไทยโรง 2.0+ อังกฤษ5.1] -MiniBD.H.264.1080p. [Modified]-[พากย์ไทยโรง]



    Abominable (2019) เอเวอเรสต์ มนุษย์หิมะเพื่อนรัก ผลงานล่าสุดจากดรีมเวิร์คส์ แอนิเมชั่น สตูดิโอผู้สร้าง How To Train Your Dragon ที่จะพาผู้ชมไปผจญภัยสุดยิ่งใหญ่บนเส้นทาง 2 พันไมล์ จากเซี่ยงไฮ้สู่เทือกเขาหิมาลัย ยี สาววัยรุ่น (โดลอี้ เบนเนทท์ จาก Marvel’s Agents of S.H.I.E.L.D. บังเอิญพบเยติบนหลังคาอพาร์ทเมนต์ของเธอในเซี่ยงไฮ้ เธอและเพื่อน ๆ จอมกวน ทั้ง จิน (เทนซิง นอร์เกย์ เทรนเนอร์) และเพ็ง (อัลเบิร์ต ซาย) ตั้งชื่อว่า “เอเวอเรสต์” และออกผจญภัย เพื่อพาเยติกลับไปพบกับครอบครัวที่จุดสูงสุดของโลก ทั้ง 3 คน ต้องเผชิญหน้ากับเบอร์นิช (เอ็ดดี้ อิซซาร์ด) เศรษฐีที่ตั้งใจจะจับตัวเยติและนักสัตววิทยา ดร.ซาร่า (ซาร่าห์ พอลสัน) เพื่อช่วยเอเวอร์เรสต์กลับบ้าน

    Format : Matroska
    Format version : Version 4
    File size : 3.79 GiB
    Duration : 1 h 37 min
    Overall bit rate : 5 588 kb/s
    Movie name : Abominable.2019.1080p.WEB-DL.DD5.1.H264-FGT
    Encoded date : UTC 2019-12-02 02:47:17
    Writing application : mkvmerge v26.0.0 ('In The Game') 64-bit
    Writing library : libebml v1.3.6 + libmatroska v1.4.9
    Cover : Yes
    Attachments : small_cover.jpg / small_cover_land.jpg / cover.jpg / cover_land.jpg

    Video
    ID : 1
    Format : AVC
    Format/Info : Advanced Video Codec
    Format profile : [email protected]
    Format settings : CABAC / 4 Ref Frames
    Format settings, CABAC : Yes
    Format settings, Reference frames : 4 frames
    Codec ID : V_MPEG4/ISO/AVC
    Duration : 1 h 37 min
    Bit rate : 5 106 kb/s
    Width : 1 920 pixels
    Height : 1 032 pixels
    Display aspect ratio : 1.85:1
    Frame rate mode : Constant
    Frame rate : 23.976 (24000/1001) FPS
    Color space : YUV
    Chroma subsampling : 4:2:0
    Bit depth : 8 bits
    Scan type : Progressive
    Bits/(Pixel*Frame) : 0.107
    Stream size : 3.47 GiB (91%)
    Title : Abominable.2019.1080p.WEB-DL.DD5.1.H264-FGT
    Language : English
    Default : Yes
    Forced : No
    Color range : Limited
    Color primaries : BT.709
    Transfer characteristics : BT.709
    Matrix coefficients : BT.709

    Audio #1
    ID : 2
    Format : AC-3
    Format/Info : Audio Coding 3
    Commercial name : Dolby Digital
    Codec ID : A_AC3
    Duration : 1 h 37 min
    Bit rate mode : Constant
    Bit rate : 384 kb/s
    Channel(s) : 6 channels
    Channel layout : L R C LFE Ls Rs
    Sampling rate : 48.0 kHz
    Frame rate : 31.250 FPS (1536 SPF)
    Bit depth : 16 bits
    Compression mode : Lossy
    Delay relative to video : -42 ms
    Stream size : 267 MiB (7%)
    Title : Abominable.2019.1080p.WEB-DL.DD5.1.H264-FGT
    Language : English
    Service kind : Complete Main
    Default : No
    Forced : No

    Audio #2
    ID : 4
    Format : AAC LC
    Format/Info : Advanced Audio Codec Low Complexity
    Codec ID : A_AAC-2
    Duration : 1 h 37 min
    Bit rate : 96.0 kb/s
    Channel(s) : 2 channels
    Channel layout : L R
    Sampling rate : 48.0 kHz
    Frame rate : 46.875 FPS (1024 SPF)
    Compression mode : Lossy
    Delay relative to video : -42 ms
    Stream size : 66.8 MiB (2%)
    Language : Thai
    Default : Yes
    Forced : Yes

    Text
    ID : 3
    Format : UTF-8
    Codec ID : S_TEXT/UTF8
    Codec ID/Info : UTF-8 Plain Text
    Duration : 1 h 25 min
    Bit rate : 46 b/s
    Count of elements : 1175
    Stream size : 29.0 KiB (0%)
    Language : English
    Default : Yes
    Forced : No






    Download: cornfile
    http://cornfile.com/fm3wej6y2e12
    Download: mekafile
    http://www.mekafile.com/dl.php?f=as621ec2l8mC

  2. The Following User Says Thank You to Duckload.us For This Useful Post:

    Wesker_TOT (12-05-2019)

  3. #2
    Senior Member
    สมัครเมื่อ
    Dec 2013
    โพสต์
    1,888
    Thanks
    3,816
    Thanked 0 Times in 0 Posts
    ขอบคุณครับ...

  4. #3
    Senior Member
    สมัครเมื่อ
    Jun 2014
    โพสต์
    2,034
    Thanks
    0
    Thanked 0 Times in 0 Posts
    ขอบคุณครับ

+ ตอบกลับกระทู้

ข้อมูลกระทู้

Users Browsing this Thread

ในขณะนี้มี 1 ท่านดูกระทู้อยู่. (0 สมาชิกและ 1 ผู้เยี่ยมชม)

     

กฎการโพสต์ข้อความ

  • ท่าน ไม่สามารถ ตั้งกระทู้ใหม่ได้
  • ท่าน ไม่สามารถ ตอบกระทู้ได้
  • ท่าน ไม่สามารถ แนบไฟล์ได้
  • ท่าน ไม่สามารถ แก้ไขข้อความโพสต์ได้
  • BB code สถานะ เปิด
  • Smilies สถานะ เปิด
  • [IMG] สถานะ เปิด
  • HTML สถานะ ปิด