+ ตอบกลับกระทู้
สรุปผลการค้นหา 1 ถึง 4 จากทั้งหมด 4
  1. #1
    Administrators รูปส่วนตัว Duckload.us
    สมัครเมื่อ
    Dec 2010
    โพสต์
    109,943
    Thanks
    7
    Thanked 115,314 Times in 52,768 Posts

    Question (จีน)-Ne Zha (2019) นาจา-[720p][ Sound:Thai Rong AC3 2.0][HARD SUB:Chi]



    เรื่องราวของไข่มุกแห่งสวรรค์และโอสถปีศาจ ท่านอาจารย์ หยวนสือเทียนจุน ได้ส่งลูกศิษย์ Taiyi Zhenren ผู้เป็นอมตะที่นับถือลัทธิเต๋ามีหมูบินเป็นพาหนะและ Shen Gongbao ศิษย์น้องเพื่อปราบสยบไข่มุกที่ทรงพลังสามารถดูดซับพ ลังงานได้ทุกอย่าง Taiyi และ Shen ทั้งสองไม่สามารถต่อกรได้ ในที่สุดอาจารย์ Tianzun จึงจับไว้ในเตาสวรรค์และแยกไข่มุกออกเป็นสองไข่มุกแห ่งสวรรค์และโอสถปีศาจโดยร่ายคาถาให้สามปีมันจะถูกทำล ายโดยสายฟ้าฟาดอันทรงพลัง ท่านอาจารย์จึงให้ Taiyi นำไข่มุกทั้งสองลงไปยังโลกเพื่อจุติให้เกิดเป็นเด็ก Shen ไม่พอใจอาจารย์ของตนเองจึงจึงวางแผนโขมยไข่มุกแห่งสว รรค์ไปให้กับเผ่ามังกรที่ถูกจองจำอยู่ใต้พิภพ ส่วนโอสถปีศาจกลายเป็นลูกของแม่ทัพหลังจากภรรยาตั้งค รรภ์มาได้สามปี ชื่อของเขาคือ นาจา แต่ชาวบ้านไม่ยอมรับในตัวเด็กคนนี้และให้พ่อของเขากั กตัวไว้ไม่ให้ไปไหนเพราะทุกคนต่างกลัวเขาและเชื่อว่า เขาคือปีศาจ แต่บ่อยครั้งที่ นาจา แอบหนีออกมาได้และสร้างความวุ่นวายและเกิดความเสียหา ย เมื่อครบสามปีสายฟ้าแลบเข้ามา นาจา ยอมจำนนต่อชะตากรรมของเขา แต่ อ่าวปิง เข้าช่วย นาจา ทั้งสองหากรวมกันจะปล่อยพลัวอันมหาศาลและสามารถในการ ดูดซับพลังงานร่างกายมนุษย์ของพวกเขาอ่อนแอเกินกว่าจ ะบรรจุพลังงานจากการโจมตีได้ แม้ว่าร่างกายของพวกเขาจะถูกทำลาย แต่ชาวเมืองก็ยอมรับในตัวเขา

    Ne Zha.2019.720p.THR._©GOLD CUP™.mkv
    Format : Matroska
    Format version : Version 4
    File size : 3.50 GiB
    Duration : 1 h 47 min
    Overall bit rate mode : Constant
    Overall bit rate : 4 639 kb/s
    Movie name : Ne Zha.2019.720p.THR._©GOLD CUP™
    Video
    ID : 1
    Format : AVC
    Format/Info : Advanced Video Codec
    Format profile : [email protected]
    Format settings : CABAC / 1 Ref Frames
    Format settings, CABAC : Yes
    Format settings, Reference : 1 frame
    Format settings, GOP : M=1, N=25
    Codec ID : V_MPEG4/ISO/AVC
    Duration : 1 h 47 min
    Bit rate mode : Constant
    Bit rate : 4 000 kb/s
    Width : 1 280 pixels
    Height : 594 pixels
    Display aspect ratio : 2.2:1
    Frame rate mode : Constant
    Frame rate : 29.970 (30000/1001) FPS
    Color space : YUV
    Chroma subsampling : 4:2:0
    Bit depth : 8 bits
    Scan type : Progressive
    Bits/(Pixel*Frame) : 0.176
    Stream size : 3.01 GiB (86%)
    Title : Ne Zha.2019.720p.THR._©GOLD CUP™
    Language : Thai
    Default : Yes
    Forced : No

    Audio
    ID : 2
    Format : AC-3
    Format/Info : Audio Coding 3
    Commercial name : Dolby Digital
    Codec ID : A_AC3
    Duration : 1 h 47 min
    Bit rate mode : Constant
    Bit rate : 640 kb/s
    Channel(s) : 2 channels
    Channel layout : L R
    Sampling rate : 44.1 kHz
    Frame rate : 28.711 FPS (1536 SPF)
    Compression mode : Lossy
    Stream size : 494 MiB (14%)
    Title : 2.0 AC3 THR 640k 494m_©GOLD CUP™
    Language : Thai
    Service kind : Complete Main
    Default : Yes
    Forced : No





    Download: cornfile
    http://cornfile.com/fit7bf2glrfr
    Download: mekafile
    http://www.mekafile.com/dl.php?f=AC0546c2sLmd

  2. The Following User Says Thank You to Duckload.us For This Useful Post:

    Wesker_TOT (12-08-2019)

  3. #2
    Senior Member
    สมัครเมื่อ
    Dec 2013
    โพสต์
    1,878
    Thanks
    3,809
    Thanked 0 Times in 0 Posts
    ขอบคุณครับ...

  4. #3
    Senior Member
    สมัครเมื่อ
    Jul 2014
    โพสต์
    178
    Thanks
    5
    Thanked 0 Times in 0 Posts
    ขอบคุณครับ

  5. #4
    Senior Member
    สมัครเมื่อ
    Jun 2014
    โพสต์
    2,036
    Thanks
    0
    Thanked 0 Times in 0 Posts
    ขอบคุณครับ

+ ตอบกลับกระทู้

ข้อมูลกระทู้

Users Browsing this Thread

ในขณะนี้มี 1 ท่านดูกระทู้อยู่. (0 สมาชิกและ 1 ผู้เยี่ยมชม)

     

กฎการโพสต์ข้อความ

  • ท่าน ไม่สามารถ ตั้งกระทู้ใหม่ได้
  • ท่าน ไม่สามารถ ตอบกระทู้ได้
  • ท่าน ไม่สามารถ แนบไฟล์ได้
  • ท่าน ไม่สามารถ แก้ไขข้อความโพสต์ได้
  • BB code สถานะ เปิด
  • Smilies สถานะ เปิด
  • [IMG] สถานะ เปิด
  • HTML สถานะ ปิด