Format : Matroska
Format version : Version 4 / Version 2
File size : 1.45 GiB
Duration : 41 min 2 s
Overall bit rate : 5 069 kb/s
Movie name : [email protected]
Encoded date : UTC 2019-11-09 11:01:17
Writing application : mkvmerge v39.0.0 ('In The Waiting Line') 64-bit
Writing library : libebml v1.3.9 + libmatroska v1.5.2

Video
ID : 1
Format : AVC
Format/Info : Advanced Video Codec
Format profile : [email protected]
Format settings, CABAC : Yes
Format settings, RefFrames : 3 frames
Codec ID : V_MPEG4/ISO/AVC
Duration : 41 min 2 s
Bit rate : 4 412 kb/s
Width : 1 920 pixels
Height : 1 080 pixels
Display aspect ratio : 16:9
Frame rate mode : Constant
Frame rate : 23.976 (24000/1001) FPS
Color space : YUV
Chroma subsampling : 4:2:0
Bit depth : 8 bits
Scan type : Progressive
Bits/(Pixel*Frame) : 0.089
Stream size : 1.26 GiB (87%)
Default : Yes
Forced : No
Comment : NETFLIX BY ARGON

Audio
ID : 2
Format : E-AC-3
Format/Info : Enhanced Audio Coding 3
Format settings, Endianness : Big
Codec ID : A_EAC3
Duration : 41 min 2 s
Bit rate mode : Constant
Bit rate : 640 kb/s
Channel(s) : 6 channels
Channel positions : Front: L C R, Side: L R, LFE
Sampling rate : 48.0 kHz
Frame rate : 187.500 FPS (256 SPF)
Compression mode : Lossy
Delay relative to video : -83 ms
Stream size : 188 MiB (13%)
Title : EN AC3
Language : English
Service kind : Complete Main
Default : Yes
Forced : No

Text #1
ID : 3
Format : PGS
Muxing mode : zlib
Codec ID : S_HDMV/PGS
Codec ID/Info : Picture based subtitle format used on BDs/HD-DVDs
Duration : 38 min 47 s
Bit rate : 14.7 kb/s
Count of elements : 926
Stream size : 4.08 MiB (0%)
Title : TH_PGS
Language : Thai
Default : Yes
Forced : No

Text #2
ID : 4
Format : VobSub
Muxing mode : zlib
Codec ID : S_VOBSUB
Codec ID/Info : Picture based subtitle format used on DVDs
Duration : 38 min 47 s
Bit rate : 6 639 b/s
Count of elements : 461
Stream size : 1.84 MiB (0%)
Title : TH_VOBSUB
Language : Thai
Default : No
Forced : No

Text #3
ID : 5
Format : VobSub
Muxing mode : zlib
Codec ID : S_VOBSUB
Codec ID/Info : Picture based subtitle format used on DVDs
Duration : 38 min 47 s
Bit rate : 6 635 b/s
Count of elements : 461
Stream size : 1.84 MiB (0%)
Title : TH_VOBSUB_YELLOW
Language : Thai
Default : No
Forced : No

ตอนนี้มีแค่2ซีซํ่นครับ ซีซํ่น3 NETFLIX ยังไม่อัพเดทซับไทย


Ash.vs.Evil.Dead.2016.S02
1
http://www.filecondo.com/dl.php?f=G13c7a1IDdo1
2
http://www.filecondo.com/dl.php?f=nb3a851IDdoV
3
http://www.filecondo.com/dl.php?f=E5ef651IDdpV
4
http://www.filecondo.com/dl.php?f=mddd081IDdqT
5
http://www.filecondo.com/dl.php?f=g2b9831IDdrQ
6
http://www.filecondo.com/dl.php?f=e52a3d1IDdsO
7
http://www.filecondo.com/dl.php?f=Ua43951IDdtM
8
http://www.filecondo.com/dl.php?f=Ted1ea1IDduL
9
http://www.filecondo.com/dl.php?f=r38f8c1IDdvJ
10
http://www.filecondo.com/dl.php?f=o999341IDdwJ

Ash.vs.Evil.Dead.2016.S01
1
http://www.filecondo.com/dl.php?f=u7f5aa1IDdep
2
http://www.filecondo.com/dl.php?f=H9ac7a1IDdfj
3
http://www.filecondo.com/dl.php?f=dbcf381HCuU7 fix
4
http://www.filecondo.com/dl.php?f=2baf9f1IDdhf
5
http://www.filecondo.com/dl.php?f=g7408f1IDdib
6
http://www.filecondo.com/dl.php?f=Bbb9771IDdj9
7
http://www.filecondo.com/dl.php?f=a7bd7d1IDdk8
8
http://www.filecondo.com/dl.php?f=g506fd1IDdl7
9
http://www.filecondo.com/dl.php?f=1964f41IDdm6
10
http://www.filecondo.com/dl.php?f=l770cb1IDdnc