+ ตอบกลับกระทู้
สรุปผลการค้นหา 1 ถึง 3 จากทั้งหมด 3
  1. #1
    Administrators รูปส่วนตัว Duckload.us
    สมัครเมื่อ
    Dec 2010
    โพสต์
    116,973
    Thanks
    7
    Thanked 123,253 Times in 55,239 Posts

    Question [จีน]-**[ร้อนๆ การ์ตูน ][ ไทยโรงภาพชัด ] Ne Zha (2019) [พากย์:ไทยโรง5.1-จีน][คำบรรยาย:จีนฝัง]-HDTV.H.264.1080p. [scan]-[พากย์ไทยโรง]



    เรื่องย่อ...

    Ne Zha (2019) นาจา เป็นสงครามของเทพเจ้าที่โชคชะตาพลิกผันให้ตกอยู่ในร่ างของมาร ที่เขาต้องต่อสู้ ฝ่าฟันกับชะตากรรม และยืนหยัดด้วยจิตใต้สำนึกแห่งความดีจนวินาทีสุดท้าย พลังแห่งสวรรค์และโลก ที่ได้ให้กำเนิดไข่มุกอันทรงพลังที่หลอมรวมพลังมหาศา ลไว้ด้วยกัน หยวนสือเทียนจุน เทพผู้เป็นใหญ่ที่สุดในสวรรค์ได้แยกไข่มุกออกเป็นสอง ลูก ลูกหนึ่งกลายเป็นไข่มุกสวรรค์ ส่วนอีกลูกเป็นโอสถปีศาจ และนำเก็บไว้ในบัววิเศษเจ็ดสี หยวนสือเทียนจุน ได้ให้ เทพไท่อี่ ลูกศิษย์หมูอ้วนนำไข่มุกสวรรค์ไปจุติเป็นมนุษย์ที่จะ มีส่วนในการก่อตั้งราชวงศ์โจว ในขณะที่โอสถปีศาจถูกลิขิตให้จุติเป็นปีศาจร้ายที่จะ มาทำลายล้างโลก แต่เทพ หยวนสือเทียนจุน จึงได้ร่ายคาถาฟ้าพิโรธใส่โอสถปีศาจเพื่อให้มันถูกทำ ลายภายในเวลาสามปีหลังจากที่มัยจุติขึ้น เทพไท่อี่ ได้รับบัญชาให้นำไข่มุกสวรรค์ไปจุติในครอบครัวของ แม่ทัพหลี่จิ้ง เพื่อให้กำเนิดบุตรขึ้นมาและตั้งชื่อว่า นาจา แต่ไข่มุกสวรรค์ถูกขโมยไปและมันยังทำให้โอสถปีศาจจุต ิเป็น นาจา แทน นาจา จึงถือกำเนิดขึ้นมาด้วยพลังโอสถปีศาจ แทนที่จะต้องเกิดมาเพื่อช่วยเหลือมนุษย์ตามลิขิตสวรร ค์ กลับกลายเป็นปีศาจผู้ที่จะมาก่อภัยพิบัติ เมื่อครบสามปีสายฟ้าแลบเข้ามา นาจา ยอมจำนนต่อชะตากรรมของเขา แต่ อ่าวปิง เข้าช่วย นาจา ทั้งสองหากรวมกันจะปล่อยพลัวอันมหาศาลและสามารถในการ ดูดซับพลังงานร่างกายมนุษย์ของพวกเขาอ่อนแอเกินกว่าจ ะบรรจุพลังงานจากการโจมตีได้ แม้ว่าร่างกายของพวกเขาจะถูกทำลาย

    Format : Matroska
    Format version : Version 4
    File size : 2.75 GiB
    Duration : 1 h 49 min
    Overall bit rate : 3 574 kb/s
    Movie name : Ne.Zha.2019.HD1080P.X264.THR.AC3-5.1
    Encoded date : UTC 2019-12-08 22:41:31
    Writing application : mkvmerge v19.0.0 ('Brave Captain') 64-bit
    Writing library : libebml v1.3.5 + libmatroska v1.4.8

    Video
    ID : 1
    Format : AVC
    Format/Info : Advanced Video Codec
    Format profile : [email protected]
    Format settings : CABAC / 4 Ref Frames
    Format settings, CABAC : Yes
    Format settings, Reference frames : 4 frames
    Codec ID : V_MPEG4/ISO/AVC
    Duration : 1 h 49 min
    Bit rate : 2 995 kb/s
    Width : 1 920 pixels
    Height : 800 pixels
    Display aspect ratio : 2.40:1
    Frame rate mode : Constant
    Frame rate : 24.000 FPS
    Color space : YUV
    Chroma subsampling : 4:2:0
    Bit depth : 8 bits
    Scan type : Progressive
    Bits/(Pixel*Frame) : 0.081
    Stream size : 2.30 GiB (84%)
    Title : Ne.Zha.2019.HD1080P.X264.THR.AC-3-5.1
    Writing library : Provided by
    Language : Chinese
    Default : Yes
    Forced : No

    Audio #1
    ID : 2
    Format : AAC LC
    Format/Info : Advanced Audio Codec Low Complexity
    Codec ID : A_AAC-2
    Duration : 1 h 49 min
    Bit rate : 128 kb/s
    Channel(s) : 2 channels
    Channel layout : L R
    Sampling rate : 44.1 kHz
    Frame rate : 43.066 FPS (1024 SPF)
    Compression mode : Lossy
    Delay relative to video : -46 ms
    Stream size : 101 MiB (4%)
    Language : Chinese
    Default : No
    Forced : No

    Audio #2
    ID : 3
    Format : AC-3
    Format/Info : Audio Coding 3
    Commercial name : Dolby Digital
    Codec ID : A_AC3
    Duration : 1 h 49 min
    Bit rate mode : Constant
    Bit rate : 448 kb/s
    Channel(s) : 6 channels
    Channel layout : L R C LFE Ls Rs
    Sampling rate : 48.0 kHz
    Frame rate : 31.250 FPS (1536 SPF)
    Bit depth : 16 bits
    Compression mode : Lossy
    Delay relative to video : -46 ms
    Stream size : 352 MiB (13%)
    Title : Thai Rong AC3-5.1
    Language : Thai
    Service kind : Complete Main
    Default : Yes
    Forced : Yes





    Download: cornfile
    http://cornfile.com/uam6txfm2bwh
    Download: mekafile
    http://www.mekafile.com/dl.php?f=53c9f4c2xLLm

  2. #2
    Senior Member
    สมัครเมื่อ
    Jun 2014
    โพสต์
    4,331
    Thanks
    0
    Thanked 0 Times in 0 Posts
    ขอบคุณครับ

  3. #3
    Senior Member
    สมัครเมื่อ
    Dec 2013
    โพสต์
    2,150
    Thanks
    4,074
    Thanked 0 Times in 0 Posts
    ขอบคุณนะครับ...

+ ตอบกลับกระทู้

ข้อมูลกระทู้

Users Browsing this Thread

ในขณะนี้มี 1 ท่านดูกระทู้อยู่. (0 สมาชิกและ 1 ผู้เยี่ยมชม)

     

กฎการโพสต์ข้อความ

  • ท่าน ไม่สามารถ ตั้งกระทู้ใหม่ได้
  • ท่าน ไม่สามารถ ตอบกระทู้ได้
  • ท่าน ไม่สามารถ แนบไฟล์ได้
  • ท่าน ไม่สามารถ แก้ไขข้อความโพสต์ได้
  • BB code สถานะ เปิด
  • Smilies สถานะ เปิด
  • [IMG] สถานะ เปิด
  • HTML สถานะ ปิด