+ ตอบกลับกระทู้
สรุปผลการค้นหา 1 ถึง 7 จากทั้งหมด 7
  1. #1
    Administrators รูปส่วนตัว Duckload.us
    สมัครเมื่อ
    Dec 2010
    โพสต์
    109,737
    Thanks
    7
    Thanked 115,104 Times in 52,726 Posts

    Question (ฝรั่ง.ไทยมาสเตอร์)-THE KITCHEN (2019) เมื่อแม่บ้านต้องกลายเป็นหัวหน้าแก๊ง [BluRay.1080p][ Sound:Eng/Thai AC3 5.1:MASTER][SUB:Eng/Thai.PGS]



    เรื่องราวของเหล่าเมียๆสามคนที่เป็นหัวหน้าแก๊งมาเฟี ยที่คุมย่านเฮลล์คิทเช่น ซึ่งพวกเธอต้องรวมกันก่ออาชญากรรมเพื่อสานต่องานของแ ก๊งหลังจากที่สามีของพวกเธอถูกจับเข้าคุก

    Format : Matroska
    Format version : Version 4
    File size : 4.19 GiB
    Duration : 1 h 42 min
    Overall bit rate : 5 846 kb/s
    Movie name : The.Kitchen.2019.1080p.BluRay.x264_©GOLD CUP™

    Video
    ID : 1
    Format : AVC
    Format/Info : Advanced Video Codec
    Format profile : [email protected]
    Format settings : CABAC / 1 Ref Frames
    Format settings, CABAC : Yes
    Format settings, Reference : 1 frame
    Format settings, GOP : M=1, N=25
    Codec ID : V_MPEG4/ISO/AVC
    Duration : 1 h 42 min
    Bit rate mode : Constant
    Bit rate : 4 500 kb/s
    Width : 1 920 pixels
    Height : 800 pixels
    Display aspect ratio : 2.40:1
    Frame rate mode : Constant
    Frame rate : 29.970 (30000/1001) FPS
    Color space : YUV
    Chroma subsampling : 4:2:0
    Bit depth : 8 bits
    Scan type : Progressive
    Bits/(Pixel*Frame) : 0.098
    Stream size : 3.22 GiB (77%)
    Title : The.Kitchen.2019.1080p.BluRay.x264_©GOLD CUP™
    Language : English
    Default : Yes
    Forced : No

    Audio #1
    ID : 2
    Format : AC-3
    Format/Info : Audio Coding 3
    Commercial name : Dolby Digital
    Codec ID : A_AC3
    Duration : 1 h 42 min
    Bit rate mode : Constant
    Bit rate : 640 kb/s
    Channel(s) : 6 channels
    Channel layout : L R C LFE Ls Rs
    Sampling rate : 44.1 kHz
    Frame rate : 28.711 FPS (1536 SPF)
    Compression mode : Lossy
    Stream size : 470 MiB (11%)
    Title : 5.1 AC3 TH 640k 469m_©GOLD CUP™
    Language : Thai
    Service kind : Complete Main
    Default : Yes
    Forced : No

    Audio #2
    ID : 3
    Format : AC-3
    Format/Info : Audio Coding 3
    Commercial name : Dolby Digital
    Codec ID : A_AC3
    Duration : 1 h 42 min
    Bit rate mode : Constant
    Bit rate : 640 kb/s
    Channel(s) : 6 channels
    Channel layout : L R C LFE Ls Rs
    Sampling rate : 44.1 kHz
    Frame rate : 28.711 FPS (1536 SPF)
    Compression mode : Lossy
    Stream size : 470 MiB (11%)
    Title : 5.1 AC3 EN 640k 469m_©GOLD CUP™
    Language : English
    Service kind : Complete Main
    Default : No
    Forced : No

    Text #1
    ID : 4
    Format : PGS
    Muxing mode : zlib
    Codec ID : S_HDMV/PGS
    Codec ID/Info : Picture based subtitle format used on BDs/HD-DVDs
    Duration : 1 h 42 min
    Bit rate : 34.7 kb/s
    Count of elements : 2934
    Stream size : 25.4 MiB (1%)
    Title : PGS.TH.white.98-85-7_©GOLD CUP™
    Language : Thai
    Default : Yes
    Forced : No

    Text #2
    ID : 5
    Format : PGS
    Muxing mode : zlib
    Codec ID : S_HDMV/PGS
    Codec ID/Info : Picture based subtitle format used on BDs/HD-DVDs
    Duration : 1 h 37 min
    Bit rate : 36.2 kb/s
    Count of elements : 2892
    Stream size : 25.2 MiB (1%)
    Title : PGS.EN.yellow.110-90-10_©GOLD CUP™
    Language : English
    Default : No
    Forced : No

    Text #3
    ID : 6
    Format : PGS
    Muxing mode : zlib
    Codec ID : S_HDMV/PGS
    Codec ID/Info : Picture based subtitle format used on BDs/HD-DVDs
    Duration : 1 h 37 min
    Bit rate : 42.2 kb/s
    Count of elements : 3280
    Stream size : 29.5 MiB (1%)
    Title : PGS.EN.SDH.oreng.110-90-10_©GOLD CUP™
    Language : English
    Default : No
    Forced : No






    Download: cornfile
    http://cornfile.com/djt9pdg0qucj
    Download: mekafile
    http://www.mekafile.com/dl.php?f=CN6594c2Gwtz

  2. The Following User Says Thank You to Duckload.us For This Useful Post:

    gaszolineskywalker (12-18-2019)

  3. #2
    Senior Member
    สมัครเมื่อ
    Jun 2014
    โพสต์
    1,836
    Thanks
    0
    Thanked 0 Times in 0 Posts
    ขอบคุณครับ

  4. #3
    Member รูปส่วนตัว ksurachai
    สมัครเมื่อ
    Nov 2019
    โพสต์
    66
    Thanks
    10
    Thanked 0 Times in 0 Posts
    โหลดตรงไหนเด็จพี่

  5. #4
    Administrators รูปส่วนตัว Duckload.us
    สมัครเมื่อ
    Dec 2010
    โพสต์
    109,737
    Thanks
    7
    Thanked 115,104 Times in 52,726 Posts
    อ้างอิง โพสต์ต้นฉบับโดยคุณ ksurachai ดูโพสต์
    โหลดตรงไหนเด็จพี่
    เรียนแจ้ง แก้ไขแล้วครับ ขออภัยด้วยนะครับ

  6. #5
    Senior Member
    สมัครเมื่อ
    Oct 2012
    โพสต์
    813
    Thanks
    1,753
    Thanked 0 Times in 0 Posts
    ขอบคุณครับ

  7. #6
    Senior Member
    สมัครเมื่อ
    Dec 2013
    โพสต์
    266
    Thanks
    181
    Thanked 0 Times in 0 Posts
    ขอบคุณครับ

  8. #7
    Senior Member
    สมัครเมื่อ
    Jul 2013
    โพสต์
    146
    Thanks
    0
    Thanked 0 Times in 0 Posts
    ขอบคุณครับผม

+ ตอบกลับกระทู้

ข้อมูลกระทู้

Users Browsing this Thread

ในขณะนี้มี 1 ท่านดูกระทู้อยู่. (0 สมาชิกและ 1 ผู้เยี่ยมชม)

     

กฎการโพสต์ข้อความ

  • ท่าน ไม่สามารถ ตั้งกระทู้ใหม่ได้
  • ท่าน ไม่สามารถ ตอบกระทู้ได้
  • ท่าน ไม่สามารถ แนบไฟล์ได้
  • ท่าน ไม่สามารถ แก้ไขข้อความโพสต์ได้
  • BB code สถานะ เปิด
  • Smilies สถานะ เปิด
  • [IMG] สถานะ เปิด
  • HTML สถานะ ปิด