+ ตอบกลับกระทู้
สรุปผลการค้นหา 1 ถึง 3 จากทั้งหมด 3
  1. #1
    Administrators รูปส่วนตัว Duckload.us
    สมัครเมื่อ
    Dec 2010
    โพสต์
    109,940
    Thanks
    7
    Thanked 115,370 Times in 52,778 Posts

    Question [ฝรั่ง]-[* ใหม่ร้อน ๆ! *][Mini-HD 1080p] Good Boys (2019) เด็กดีที่ไหน? [พากย์ไทย 5.1 + เสียงอังกฤษ DTS] • [บรรยายไทย + อังกฤษ]-Blu-ray.DTS.1080p. [Rip]-[พากย์ไทย บรรยายไทย]



    วันแย่ ๆ วันหนึ่งจะเป็นยังไงบ้าง? ผลงานจากผู้สร้าง Superbad, Pineapple Express และ Sausage Party ที่จะเล่าเรื่องฮา ๆ ของเด็กป.6กับภาพยนตร์ตลกเรื่องใหม่ Good Boys แม็กซ์ เด็กชายวัย 12 ปี ได้รับเชิญไปงานปาร์ตี้จูบแรก ซึ่งทำให้เขารู้สึกตื่นตระหนกเพราะไม่รู้ว่าจะต้องทำ อย่างไร?เขาและเพื่อนซี้ ธอร์ (เบรดี้ นูน) และลูคัส (คีธ แอล.วิลเลียมส์) จึงตัดสินใจใช้โดรนของคุณพ่อแม็กซ์ ซึ่งแม็กซ์ถูกห้ามใช้ และนำมาแอบส่องวัยรุ่นข้างบ้านแต่โดรนเกิดพังขึ้นมา พวกเขาจึงต้องหาของมาแทนก่อนที่พ่อจะกลับบ้าน เด็ก ๆ จึงโดดเรียนเข้าสู่การผจญภัยสุดฮา...!!!


    Format : Matroska
    Format version : Version 4
    File size : 7.64 GiB
    Duration : 1 h 29 min
    Overall bit rate : 12.2 Mb/s
    Movie name : Good Boys (2019)
    Encoded date : UTC 2019-12-11 03:52:28
    Writing application : mkvmerge v36.0.0 ('Is That Jazz?') 64-bit
    Writing library : libebml v1.3.9 + libmatroska v1.5.2

    Video
    ID : 1
    Format : AVC
    Format/Info : Advanced Video Codec
    Format profile : [email protected]
    Format settings : CABAC / 5 Ref Frames
    Format settings, CABAC : Yes
    Format settings, RefFrames : 5 frames
    Codec ID : V_MPEG4/ISO/AVC
    Duration : 1 h 29 min
    Bit rate : 8 965 kb/s
    Width : 1 920 pixels
    Height : 808 pixels
    Display aspect ratio : 2.40:1
    Frame rate mode : Constant
    Frame rate : 23.976 (24000/1001) FPS
    Color space : YUV
    Chroma subsampling : 4:2:0
    Bit depth : 8 bits
    Scan type : Progressive
    Bits/(Pixel*Frame) : 0.241
    Stream size : 5.61 GiB (73%)
    Title : Good Boys (2019)
    Writing library : x264 core 158 r2984 3759fcb
    Encoding settings : cabac=1 / ref=5 / deblock=1:-3:-3 / analyse=0x3:0x113 / me=umh / subme=8 / psy=1 / psy_rd=1.00:0.00 / mixed_ref=1 / me_range=16 / chroma_me=1 / trellis=1 / 8x8dct=1 / cqm=0 / deadzone=21,11 / fast_pskip=1 / chroma_qp_offset=-2 / threads=25 / lookahead_threads=4 / sliced_threads=0 / nr=0 / decimate=1 / interlaced=0 / bluray_compat=0 / constrained_intra=0 / bframes=3 / b_pyramid=2 / b_adapt=1 / b_bias=0 / direct=3 / weightb=1 / open_gop=0 / weightp=2 / keyint=250 / keyint_min=23 / scenecut=40 / intra_refresh=0 / rc_lookahead=50 / rc=2pass / mbtree=1 / bitrate=8965 / ratetol=1.0 / qcomp=0.60 / qpmin=0 / qpmax=69 / qpstep=4 / cplxblur=20.0 / qblur=0.5 / ip_ratio=1.40 / aq=1:1.00
    Language : English
    Default : Yes
    Forced : No

    Audio #1
    ID : 2
    Format : AAC LC
    Format/Info : Advanced Audio Codec Low Complexity
    Codec ID : A_AAC-2
    Duration : 1 h 29 min
    Bit rate : 441 kb/s
    Channel(s) : 6 channels
    Channel layout : C L R Ls Rs LFE
    Sampling rate : 48.0 kHz
    Frame rate : 46.875 FPS (1024 SPF)
    Compression mode : Lossy
    Stream size : 282 MiB (4%)
    Language : Thai
    Default : Yes
    Forced : No

    Audio #2
    ID : 3
    Format : AAC LC
    Format/Info : Advanced Audio Codec Low Complexity
    Codec ID : A_AAC-2
    Duration : 1 h 29 min
    Bit rate : 444 kb/s
    Channel(s) : 6 channels
    Channel layout : C L R Ls Rs LFE
    Sampling rate : 48.0 kHz
    Frame rate : 46.875 FPS (1024 SPF)
    Compression mode : Lossy
    Stream size : 285 MiB (4%)
    Language : English
    Default : No
    Forced : No

    Audio #3
    ID : 4
    Format : AC-3
    Format/Info : Audio Coding 3
    Commercial name : Dolby Digital
    Codec ID : A_AC3
    Duration : 1 h 29 min
    Bit rate mode : Constant
    Bit rate : 384 kb/s
    Channel(s) : 6 channels
    Channel layout : L R C LFE Ls Rs
    Sampling rate : 48.0 kHz
    Frame rate : 31.250 FPS (1536 SPF)
    Bit depth : 16 bits
    Compression mode : Lossy
    Stream size : 246 MiB (3%)
    Language : Thai
    Service kind : Complete Main
    Default : No
    Forced : No

    Audio #4
    ID : 5
    Format : AC-3
    Format/Info : Audio Coding 3
    Commercial name : Dolby Digital
    Codec ID : A_AC3
    Duration : 1 h 29 min
    Bit rate mode : Constant
    Bit rate : 448 kb/s
    Channel(s) : 6 channels
    Channel layout : L R C LFE Ls Rs
    Sampling rate : 48.0 kHz
    Frame rate : 31.250 FPS (1536 SPF)
    Bit depth : 16 bits
    Compression mode : Lossy
    Stream size : 287 MiB (4%)
    Language : English
    Service kind : Complete Main
    Default : No
    Forced : No

    Audio #5
    ID : 6
    Format : DTS
    Format/Info : Digital Theater Systems
    Codec ID : A_DTS
    Duration : 1 h 29 min
    Bit rate mode : Constant
    Bit rate : 1 509 kb/s
    Channel(s) : 6 channels
    Channel layout : C L R Ls Rs LFE
    Sampling rate : 48.0 kHz
    Frame rate : 93.750 FPS (512 SPF)
    Bit depth : 24 bits
    Compression mode : Lossy
    Stream size : 967 MiB (12%)
    Language : English
    Default : No
    Forced : No

    Text #1
    ID : 7
    Format : VobSub
    Muxing mode : zlib
    Codec ID : S_VOBSUB
    Codec ID/Info : Picture based subtitle format used on DVDs
    Duration : 1 h 29 min
    Bit rate : 15.2 kb/s
    Count of elements : 1458
    Stream size : 9.75 MiB (0%)
    Language : Thai
    Default : Yes
    Forced : No

    Text #2
    ID : 8
    Format : VobSub
    Muxing mode : zlib
    Codec ID : S_VOBSUB
    Codec ID/Info : Picture based subtitle format used on DVDs
    Duration : 1 h 22 min
    Bit rate : 14.8 kb/s
    Count of elements : 1703
    Stream size : 8.79 MiB (0%)
    Language : English
    Default : No
    Forced : No






    Download: cornfile
    http://cornfile.com/qlze1frk73q8
    Download: mekafile
    http://www.mekafile.com/dl.php?f=4m58acc2HyAd

  2. The Following 3 Users Say Thank You to Duckload.us For This Useful Post:

    amorn wichian (12-13-2019), smakha (12-12-2019), Wesker_TOT (12-12-2019)

  3. #2
    Senior Member
    สมัครเมื่อ
    Dec 2013
    โพสต์
    1,888
    Thanks
    3,816
    Thanked 0 Times in 0 Posts
    ขอบคุณครับ...

  4. #3
    Senior Member
    สมัครเมื่อ
    Jun 2014
    โพสต์
    2,034
    Thanks
    0
    Thanked 0 Times in 0 Posts
    ขอบคุณครับ

+ ตอบกลับกระทู้

ข้อมูลกระทู้

Users Browsing this Thread

ในขณะนี้มี 1 ท่านดูกระทู้อยู่. (0 สมาชิกและ 1 ผู้เยี่ยมชม)

     

กฎการโพสต์ข้อความ

  • ท่าน ไม่สามารถ ตั้งกระทู้ใหม่ได้
  • ท่าน ไม่สามารถ ตอบกระทู้ได้
  • ท่าน ไม่สามารถ แนบไฟล์ได้
  • ท่าน ไม่สามารถ แก้ไขข้อความโพสต์ได้
  • BB code สถานะ เปิด
  • Smilies สถานะ เปิด
  • [IMG] สถานะ เปิด
  • HTML สถานะ ปิด