+ ตอบกลับกระทู้
สรุปผลการค้นหา 1 ถึง 3 จากทั้งหมด 3
  1. #1
    Administrators รูปส่วนตัว Duckload.us
    สมัครเมื่อ
    Dec 2010
    โพสต์
    111,417
    Thanks
    7
    Thanked 116,834 Times in 53,179 Posts

    Angry [ฝรั่ง] [Open Matte] The Book of Eli (2010) : คัมภีร์ พลิกชะตาโลก [พากย์ไทย 5.1 + อังกฤษ 5.1]-[บรรยายไทย + อังกฤษ]



    อีไล (เดนเซล วอชิงตัน) นักรบผู้โดดเดี่ยวย่ำเท้าไปทั่วแผ่นดินอันรกร้างว่าง เปล่า หลังหายนะครั้งใหญ่ที่เกิดขึ้นกับดินแดน
    ซึ่งครั้งหนึ่งเคยเรียกว่าอเมริกา เขามุ่งหน้าไปทางทิศตะวันตกในภารกิจที่ยังไม่อาจเข้า ใจกระจ่างนัก
    และเขาต้องปกป้องหนังสือเล่มสุดท้ายด้วยชีวิต ซึ่งว่ากันว่ามันคือเคัมภีร์กอบกู้อนาคต แต่คาร์เนจี้ (แกรี่ โอลด์แมน)
    ก็รู้ดีถึงอานุภาพของหนังสือเล่มนั้นและต้องการไว้คร อบครอง แต่ไม่มีสิ่งใดที่จะมาขวางเส้นทางแห่งลิขิต
    ที่อีไลตั้งใจไว้ในการฟื้นฟูอารยธรรมของมนุษยชาติกลั บคืนมา!!!

    Code:
    General
    Unique ID                   : 44873293945992389251732749357212997592 (0x21C24834850E0D8B132A02126A3F97D8)
    Complete name               : D:Blu-Ray REMASTERED 1080p2010.The.Book.of.Eli.Open.Matte.1080p.WEB-DL.5xtha.Eng-WatcharaSh.mkv
    Format                      : Matroska
    Format version              : Version 4 / Version 2
    File size                   : 5.57 GiB
    Duration                    : 1 h 57 min
    Overall bit rate mode       : Variable
    Overall bit rate            : 6 766 kb/s
    Movie name                  : The.Book.of.Eli.2010.Open.Matte.1080p.WEB-DL.5xRus.Eng-spartanec163
    Encoded date                : UTC 2019-10-19 10:09:56
    Writing application         : mkvmerge v25.0.0 ('Prog Noir') 64-bit
    Writing library             : libebml v1.3.6 + libmatroska v1.4.9
    
    Video
    ID                          : 1
    Format                      : AVC
    Format/Info                 : Advanced Video Codec
    Format profile              : [email protected]
    Format settings             : CABAC / 4 Ref Frames
    Format settings, CABAC      : Yes
    Format settings, ReFrames   : 4 frames
    Codec ID                    : V_MPEG4/ISO/AVC
    Duration                    : 1 h 57 min
    Bit rate mode               : Variable
    Bit rate                    : 5 657 kb/s
    Maximum bit rate            : 15.0 Mb/s
    Width                       : 1 920 pixels
    Height                      : 1 080 pixels
    Display aspect ratio        : 16:9
    Frame rate mode             : Constant
    Frame rate                  : 23.976 (24000/1001) FPS
    Color space                 : YUV
    Chroma subsampling          : 4:2:0
    Bit depth                   : 8 bits
    Scan type                   : Progressive
    Bits/(Pixel*Frame)          : 0.114
    Stream size                 : 4.65 GiB (84%)
    Title                       : WEB-DL 1080p (Amazon)
    Language                    : English
    Default                     : Yes
    Forced                      : No
    Color range                 : Limited
    Color primaries             : BT.709
    Transfer characteristics    : BT.709
    Matrix coefficients         : BT.709
    
    Audio #1
    ID                          : 2
    Format                      : E-AC-3
    Format/Info                 : Enhanced Audio Coding 3
    Codec ID                    : A_EAC3
    Duration                    : 1 h 57 min
    Bit rate mode               : Constant
    Bit rate                    : 640 kb/s
    Channel(s)                  : 6 channels
    Channel positions           : Front: L C R, Side: L R, LFE
    Sampling rate               : 48.0 kHz
    Frame rate                  : 187.500 FPS (256 SPF)
    Compression mode            : Lossy
    Stream size                 : 539 MiB (9%)
    Title                       : E-AC3 5.1 640Kbps (Amazon)
    Language                    : English
    Service kind                : Complete Main
    Default                     : No
    Forced                      : No
    
    Audio #2
    ID                          : 5
    Format                      : AC-3
    Format/Info                 : Audio Coding 3
    Codec ID                    : A_AC3
    Duration                    : 1 h 57 min
    Bit rate mode               : Constant
    Bit rate                    : 448 kb/s
    Channel(s)                  : 6 channels
    Channel positions           : Front: L C R, Side: L R, LFE
    Sampling rate               : 48.0 kHz
    Frame rate                  : 31.250 FPS (1536 SPF)
    Bit depth                   : 16 bits
    Compression mode            : Lossy
    Delay relative to video     : 6 s 0 ms
    Stream size                 : 377 MiB (7%)
    Title                       : AC3 5.1 640Kbps
    Language                    : Thai
    Service kind                : Complete Main
    Default                     : Yes
    Forced                      : No
    
    Text #1
    ID                          : 3
    Format                      : UTF-8
    Codec ID                    : S_TEXT/UTF8
    Codec ID/Info               : UTF-8 Plain Text
    Duration                    : 1 h 40 min
    Bit rate                    : 34 b/s
    Count of elements           : 835
    Stream size                 : 25.2 KiB (0%)
    Title                       : English
    Language                    : English
    Default                     : No
    Forced                      : No
    
    Text #2
    ID                          : 4
    Format                      : UTF-8
    Codec ID                    : S_TEXT/UTF8
    Codec ID/Info               : UTF-8 Plain Text
    Duration                    : 1 h 56 min
    Bit rate                    : 34 b/s
    Count of elements           : 1262
    Stream size                 : 29.4 KiB (0%)
    Title                       : English, SDH, Amazon
    Language                    : English
    Default                     : No
    Forced                      : No
    
    Text #3
    ID                          : 6
    Format                      : VobSub
    Muxing mode                 : zlib
    Codec ID                    : S_VOBSUB
    Codec ID/Info               : Picture based subtitle format used on DVDs
    Duration                    : 1 h 40 min
    Bit rate                    : 5 913 b/s
    Count of elements           : 836
    Stream size                 : 4.25 MiB (0%)
    Title                       : THAI 1080p Yellow
    Language                    : Thai
    Default                     : Yes
    Forced                      : No
    
    Text #4
    ID                          : 7
    Format                      : VobSub
    Muxing mode                 : zlib
    Codec ID                    : S_VOBSUB
    Codec ID/Info               : Picture based subtitle format used on DVDs
    Duration                    : 1 h 40 min
    Bit rate                    : 5 913 b/s
    Count of elements           : 836
    Stream size                 : 4.25 MiB (0%)
    Title                       : THAI 1080p White
    Language                    : Thai
    Default                     : No
    Forced                      : No
    
    Text #5
    ID                          : 8
    Format                      : PGS
    Muxing mode                 : zlib
    Codec ID                    : S_HDMV/PGS
    Codec ID/Info               : Picture based subtitle format used on BDs/HD-DVDs
    Duration                    : 1 h 40 min
    Bit rate                    : 27.9 kb/s
    Count of elements           : 1672
    Stream size                 : 20.1 MiB (0%)
    Title                       : THAI PGS 1080p Blu-ray
    Language                    : Thai
    Default                     : No
    Forced                      : No
    
    Text #6
    ID                          : 9
    Format                      : UTF-8
    Codec ID                    : S_TEXT/UTF8
    Codec ID/Info               : UTF-8 Plain Text
    Duration                    : 1 h 48 min
    Bit rate                    : 70 b/s
    Count of elements           : 837
    Stream size                 : 56.3 KiB (0%)
    Title                       : THAI SRT OCR
    Language                    : Thai
    Default                     : No
    Forced                      : No







    http://cornfile.com/v54ij9i0cvjl

  2. #2
    Member รูปส่วนตัว ksurachai
    สมัครเมื่อ
    Nov 2019
    โพสต์
    78
    Thanks
    14
    Thanked 0 Times in 0 Posts
    ขอบคุณมากคร้าบบบบบ หาอยู่เลย

  3. #3
    Senior Member
    สมัครเมื่อ
    Jul 2012
    โพสต์
    6,503
    Thanks
    0
    Thanked 0 Times in 0 Posts
    ขอบคุณมากจ้า

+ ตอบกลับกระทู้

ข้อมูลกระทู้

Users Browsing this Thread

ในขณะนี้มี 1 ท่านดูกระทู้อยู่. (0 สมาชิกและ 1 ผู้เยี่ยมชม)

     

กฎการโพสต์ข้อความ

  • ท่าน ไม่สามารถ ตั้งกระทู้ใหม่ได้
  • ท่าน ไม่สามารถ ตอบกระทู้ได้
  • ท่าน ไม่สามารถ แนบไฟล์ได้
  • ท่าน ไม่สามารถ แก้ไขข้อความโพสต์ได้
  • BB code สถานะ เปิด
  • Smilies สถานะ เปิด
  • [IMG] สถานะ เปิด
  • HTML สถานะ ปิด