+ ตอบกลับกระทู้
สรุปผลการค้นหา 1 ถึง 3 จากทั้งหมด 3
  1. #1
    Administrators รูปส่วนตัว Duckload.us
    สมัครเมื่อ
    Dec 2010
    โพสต์
    110,030
    Thanks
    7
    Thanked 115,492 Times in 52,807 Posts

    Question (ฝรั่ง.พากย์ไทยมาสเตอร์)-Crawl (2019) คลานขย้ำ [1080p.BluRay][ Sound:Eng/Thai AC3 5.1:Master][SUB:Eng/Thai.PGS]



    เมื่อพายุเฮอร์ริเคนพัดถล่มฟลอริดา เฮลีย์ (คาย่า สโคเดลาริโอ) กลับไปยังบ้านเกิดโดยไม่สนใจคำสั่งประกาศอพยพ เพื่อกลับไปหาพ่อ (แบร์รี่ เป็ปเปอร์) ที่หายตัวไป เธอพบพ่อในสภาพได้รับบาดเจ็บสาหัสอยู่ในพื้นที่ใต้ถุ นบ้าน ทั้งคู่ถูกพายุซัดและน้ำเริ่มท่วมเต็มพื้นที่ใต้บ้าน เวลาที่จะหนีจากพายุเริ่มน้อยลง เฮลีย์และพ่อต้องเผชิญกับระดับน้ำที่สูงขึ้น และจระนักล่าอยู่รายรอบ

    Format : Matroska
    Format version : Version 4
    File size : 3.25 GiB
    Duration : 1 h 27 min
    Overall bit rate : 5 316 kb/s
    Movie name : [email protected] Cup

    Video
    ID : 1
    Format : AVC
    Format/Info : Advanced Video Codec
    Format profile : [email protected]
    Format settings : CABAC / 1 Ref Frames
    Format settings, CABAC : Yes
    Format settings, Reference : 1 frame
    Format settings, GOP : M=1, N=25
    Codec ID : V_MPEG4/ISO/AVC
    Duration : 1 h 27 min
    Bit rate mode : Constant
    Bit rate : 4 000 kb/s
    Width : 1 920 pixels
    Height : 800 pixels
    Display aspect ratio : 2.40:1
    Frame rate mode : Constant
    Frame rate : 29.970 (30000/1001) FPS
    Color space : YUV
    Chroma subsampling : 4:2:0
    Bit depth : 8 bits
    Scan type : Progressive
    Bits/(Pixel*Frame) : 0.087
    Stream size : 2.44 GiB (75%)
    Language : English
    Default : Yes
    Forced : No

    Audio #1
    ID : 2
    Format : AC-3
    Format/Info : Audio Coding 3
    Commercial name : Dolby Digital
    Codec ID : A_AC3
    Duration : 1 h 27 min
    Bit rate mode : Constant
    Bit rate : 640 kb/s
    Channel(s) : 6 channels
    Channel layout : L R C LFE Ls Rs
    Sampling rate : 44.1 kHz
    Frame rate : 28.711 FPS (1536 SPF)
    Compression mode : Lossy
    Stream size : 401 MiB (12%)
    Title : 5.1 AC3 TH 640k 400m
    Language : Thai
    Service kind : Complete Main
    Default : Yes
    Forced : No

    Audio #2
    ID : 3
    Format : AC-3
    Format/Info : Audio Coding 3
    Commercial name : Dolby Digital
    Codec ID : A_AC3
    Duration : 1 h 27 min
    Bit rate mode : Constant
    Bit rate : 640 kb/s
    Channel(s) : 6 channels
    Channel layout : L R C LFE Ls Rs
    Sampling rate : 44.1 kHz
    Frame rate : 28.711 FPS (1536 SPF)
    Compression mode : Lossy
    Stream size : 401 MiB (12%)
    Title : 5.1 AC3 EN 640k 400m
    Language : English
    Service kind : Complete Main
    Default : No
    Forced : No

    Text #1
    ID : 4
    Format : PGS
    Muxing mode : zlib
    Codec ID : S_HDMV/PGS
    Codec ID/Info : Picture based subtitle format used on BDs/HD-DVDs
    Duration : 1 h 22 min
    Bit rate : 26.1 kb/s
    Count of elements : 1164
    Stream size : 15.4 MiB (0%)
    Title : PGS.pink
    Language : Thai
    Default : Yes
    Forced : No

    Text #2
    ID : 5
    Format : PGS
    Muxing mode : zlib
    Codec ID : S_HDMV/PGS
    Codec ID/Info : Picture based subtitle format used on BDs/HD-DVDs
    Duration : 1 h 16 min
    Bit rate : 23.5 kb/s
    Count of elements : 1128
    Stream size : 12.9 MiB (0%)
    Title : PGS-Crawl En-White
    Language : English
    Default : No
    Forced : No

    Text #3
    ID : 6
    Format : PGS
    Muxing mode : zlib
    Codec ID : S_HDMV/PGS
    Codec ID/Info : Picture based subtitle format used on BDs/HD-DVDs
    Duration : 1 h 24 min
    Bit rate : 31.4 kb/s
    Count of elements : 1662
    Stream size : 19.0 MiB (1%)
    Title : PGS-Crawl.2019.-Hearing Impaired=ผู้บกพร่องทางเสียง[Yellow]
    Language : English
    Default : No
    Forced : No





    Download: cornfile
    http://cornfile.com/d2t3eucmh3t9
    Download: mekafile
    http://www.mekafile.com/dl.php?f=d7f933c2HAUa

  2. The Following 2 Users Say Thank You to Duckload.us For This Useful Post:

    noi54 (12-13-2019), Wesker_TOT (12-13-2019)

  3. #2
    Senior Member
    สมัครเมื่อ
    Dec 2013
    โพสต์
    1,896
    Thanks
    3,822
    Thanked 0 Times in 0 Posts
    ขอบคุณครับ...

  4. #3
    Senior Member
    สมัครเมื่อ
    Jun 2014
    โพสต์
    2,209
    Thanks
    0
    Thanked 0 Times in 0 Posts
    ขอบคุณครับ

+ ตอบกลับกระทู้

ข้อมูลกระทู้

Users Browsing this Thread

ในขณะนี้มี 1 ท่านดูกระทู้อยู่. (0 สมาชิกและ 1 ผู้เยี่ยมชม)

     

กฎการโพสต์ข้อความ

  • ท่าน ไม่สามารถ ตั้งกระทู้ใหม่ได้
  • ท่าน ไม่สามารถ ตอบกระทู้ได้
  • ท่าน ไม่สามารถ แนบไฟล์ได้
  • ท่าน ไม่สามารถ แก้ไขข้อความโพสต์ได้
  • BB code สถานะ เปิด
  • Smilies สถานะ เปิด
  • [IMG] สถานะ เปิด
  • HTML สถานะ ปิด