+ ตอบกลับกระทู้
สรุปผลการค้นหา 1 ถึง 2 จากทั้งหมด 2
  1. #1
    Administrators รูปส่วนตัว Duckload.us
    สมัครเมื่อ
    Dec 2010
    โพสต์
    135,809
    Thanks
    7
    Thanked 140,592 Times in 61,720 Posts

    Lightbulb [ญี่ปุ่น]-Karakai Jouzu no Takagi-san แกล้งนัก รักนะรู้ยัง(คุณทาคากิ) S02 [NFWEB1080p] พากย์ไทย ซับไทย-WEB-DL.H.264.1080p. [rip from Master]-[พากย์ไทย บรรยายไทย]



    แกล้งนัก รักนะรู้ยัง (ญี่ปุ่น: か ら か い 上 手 の 高 木 さ ん โรมาจิ: Karakai Jō zu no Takagi-san, อังกฤษ: Good at Teasing, Miss Takagi ) เขียนโดย โซอิชิโระ ยามาโมโตะ (Sō ichirō Yamamoto) แนวรักคอมเมดี้ ที่เล่าถึงเรื่องราวชีวิตประจำวันของทาคากิ นักเรียนมัธยมสาวที่ชื่นชอบการแกล้ง นิชิคาตะ เพื่อนร่วมชั้นเรียนกับเธออยู่เป็นประจำ ทำให้นิชิคาตะก็ต้องหาวิธีแกล้งเธอกลับเช่นเดียวกัน ถูกตีพิมพ์ครั้งแรกในนิตยสาร Gessan ของสำนักพิมพ์โชกักกุคัง ในญี่ปุ่นมาตั้งแต่ปี 2556 จนถึงปัจจุบัน และถูกนำมาสร้างเป็นอนิเมะโดยค่าย Shin-Ei Animation ออกอากาศครั้งแรกเมื่อวันที่ 8 มกราคม จนถึง 26 มีนาคม 2561 รวมทั้งหมด 12 ตอน และออกอากาศตอนพิเศษเมื่อวันที่ 12 กรกฎาคม 2561 [1] หลังจากอนิเมะได้ออกอากาศ ก็ส่งผลให้ยอดขายมังงะสูงขึ้น จนนำมาสู่การสร้างภาคต่อซีซั่น 2 และออกอากาศในปี 2562[2] ในประเทศไทยนั้น จัดพิมพ์และจัดจำหน่ายโดยสำนักพิมพ์ DEXpress ซึ่งประกาศลิขสิทธิ์เมื่อกุมภาพันธ์ 2561


    Code:
    General
    Unique ID                   : 74482183832800357656738477168183735962 (0x3808BF2F60FF03B3F5B3BCCFA9B3F69A)
    Complete name               : G:จบแล้วKarakai Jouzu no Takagi-san แกล้งนัก รักนะรู้ยัง S02 [NFWEB1080p] พากย์ไทย ซับไทยTeasing Master Takagi-San S02E(01) [1080p] [Multi-Audio] [Multi-Subs].mkv
    Format                      : Matroska
    Format version              : Version 4 / Version 2
    File size                   : 672 MiB
    Duration                    : 24mn 17s
    Overall bit rate mode       : Variable
    Overall bit rate            : 3 869 Kbps
    Encoded date                : UTC 2019-12-07 20:15:50
    Writing application         : mkvmerge v32.0.0 ('Astral Progressions') 32-bit
    Writing library             : libebml v1.3.7 + libmatroska v1.5.0
    
    Video
    ID                          : 1
    Format                      : AVC
    Format/Info                 : Advanced Video Codec
    Format profile              : [email protected]
    Format settings, CABAC      : Yes
    Format settings, ReFrames   : 3 frames
    Codec ID                    : V_MPEG4/ISO/AVC
    Duration                    : 24mn 17s
    Bit rate mode               : Variable
    Bit rate                    : 2 610 Kbps
    Maximum bit rate            : 3 915 Kbps
    Width                       : 1 920 pixels
    Height                      : 1 080 pixels
    Display aspect ratio        : 16:9
    Frame rate mode             : Constant
    Frame rate                  : 23.976 (24000/1001) fps
    Color space                 : YUV
    Chroma subsampling          : 4:2:0
    Bit depth                   : 8 bits
    Scan type                   : Progressive
    Bits/(Pixel*Frame)          : 0.052
    Stream size                 : 449 MiB (67%)
    Writing library             : x264 core 148 r2715 7e75228
    Encoding settings           : cabac=1 / ref=3 / deblock=1:0:0 / analyse=0x1:0x111 / me=umh / subme=10 / psy=1 / psy_rd=1.00:0.00 / mixed_ref=1 / me_range=24 / chroma_me=1 / trellis=2 / 8x8dct=0 / cqm=0 / deadzone=21,11 / fast_pskip=1 / chroma_qp_offset=-2 / threads=6 / lookahead_threads=1 / sliced_threads=0 / nr=0 / decimate=1 / interlaced=0 / bluray_compat=0 / stitchable=1 / constrained_intra=0 / bframes=2 / b_pyramid=0 / b_adapt=2 / b_bias=0 / direct=3 / weightb=1 / open_gop=0 / weightp=2 / keyint=250 / keyint_min=23 / scenecut=0 / intra_refresh=0 / rc_lookahead=48 / rc=2pass / mbtree=1 / bitrate=2610 / ratetol=1.0 / qcomp=0.50 / qpmin=6 / qpmax=51 / qpstep=4 / cplxblur=20.0 / qblur=0.5 / vbv_maxrate=3915 / vbv_bufsize=5220 / nal_hrd=vbr / filler=0 / ip_ratio=1.40 / aq=1:1.00
    Default                     : Yes
    Forced                      : No
    
    Audio #1
    ID                          : 2
    Format                      : E-AC-3
    Format/Info                 : Audio Coding 3
    Format settings, Endianness : Big
    Codec ID                    : A_EAC3
    Duration                    : 24mn 17s
    Bit rate mode               : Constant
    Bit rate                    : 128 Kbps
    Channel(s)                  : 2 channels
    Channel positions           : Front: L R
    Sampling rate               : 48.0 KHz
    Frame rate                  : 187.500 fps (256 spf)
    Compression mode            : Lossy
    Stream size                 : 22.2 MiB (3%)
    Title                       : English
    Language                    : English
    Default                     : Yes
    Forced                      : No
    
    Audio #2
    ID                          : 3
    Format                      : E-AC-3
    Format/Info                 : Audio Coding 3
    Format settings, Endianness : Big
    Codec ID                    : A_EAC3
    Duration                    : 24mn 17s
    Bit rate mode               : Constant
    Bit rate                    : 128 Kbps
    Channel(s)                  : 2 channels
    Channel positions           : Front: L R
    Sampling rate               : 48.0 KHz
    Frame rate                  : 187.500 fps (256 spf)
    Compression mode            : Lossy
    Stream size                 : 22.2 MiB (3%)
    Title                       : Castilian
    Language                    : Spanish
    Default                     : No
    Forced                      : No
    
    Audio #3
    ID                          : 4
    Format                      : E-AC-3
    Format/Info                 : Audio Coding 3
    Format settings, Endianness : Big
    Codec ID                    : A_EAC3
    Duration                    : 24mn 17s
    Bit rate mode               : Constant
    Bit rate                    : 128 Kbps
    Channel(s)                  : 2 channels
    Channel positions           : Front: L R
    Sampling rate               : 48.0 KHz
    Frame rate                  : 187.500 fps (256 spf)
    Compression mode            : Lossy
    Stream size                 : 22.2 MiB (3%)
    Title                       : Spanish
    Language                    : Spanish
    Default                     : No
    Forced                      : No
    
    Audio #4
    ID                          : 5
    Format                      : E-AC-3
    Format/Info                 : Audio Coding 3
    Format settings, Endianness : Big
    Codec ID                    : A_EAC3
    Duration                    : 24mn 17s
    Bit rate mode               : Constant
    Bit rate                    : 128 Kbps
    Channel(s)                  : 2 channels
    Channel positions           : Front: L R
    Sampling rate               : 48.0 KHz
    Frame rate                  : 187.500 fps (256 spf)
    Compression mode            : Lossy
    Stream size                 : 22.2 MiB (3%)
    Title                       : French
    Language                    : French
    Default                     : No
    Forced                      : No
    
    Audio #5
    ID                          : 6
    Format                      : E-AC-3
    Format/Info                 : Audio Coding 3
    Format settings, Endianness : Big
    Codec ID                    : A_EAC3
    Duration                    : 24mn 17s
    Bit rate mode               : Constant
    Bit rate                    : 128 Kbps
    Channel(s)                  : 2 channels
    Channel positions           : Front: L R
    Sampling rate               : 48.0 KHz
    Frame rate                  : 187.500 fps (256 spf)
    Compression mode            : Lossy
    Stream size                 : 22.2 MiB (3%)
    Title                       : German
    Language                    : German
    Default                     : No
    Forced                      : No
    
    Audio #6
    ID                          : 7
    Format                      : E-AC-3
    Format/Info                 : Audio Coding 3
    Format settings, Endianness : Big
    Codec ID                    : A_EAC3
    Duration                    : 24mn 17s
    Bit rate mode               : Constant
    Bit rate                    : 128 Kbps
    Channel(s)                  : 2 channels
    Channel positions           : Front: L R
    Sampling rate               : 48.0 KHz
    Frame rate                  : 187.500 fps (256 spf)
    Compression mode            : Lossy
    Stream size                 : 22.2 MiB (3%)
    Title                       : Italian
    Language                    : Italian
    Default                     : No
    Forced                      : No
    
    Audio #7
    ID                          : 8
    Format                      : E-AC-3
    Format/Info                 : Audio Coding 3
    Format settings, Endianness : Big
    Codec ID                    : A_EAC3
    Duration                    : 24mn 17s
    Bit rate mode               : Constant
    Bit rate                    : 128 Kbps
    Channel(s)                  : 2 channels
    Channel positions           : Front: L R
    Sampling rate               : 48.0 KHz
    Frame rate                  : 187.500 fps (256 spf)
    Compression mode            : Lossy
    Stream size                 : 22.2 MiB (3%)
    Title                       : Brazilian Portuguese
    Language                    : Portuguese
    Default                     : No
    Forced                      : No
    
    Audio #8
    ID                          : 9
    Format                      : E-AC-3
    Format/Info                 : Audio Coding 3
    Format settings, Endianness : Big
    Codec ID                    : A_EAC3
    Duration                    : 24mn 17s
    Bit rate mode               : Constant
    Bit rate                    : 128 Kbps
    Channel(s)                  : 2 channels
    Channel positions           : Front: L R
    Sampling rate               : 48.0 KHz
    Frame rate                  : 187.500 fps (256 spf)
    Compression mode            : Lossy
    Stream size                 : 22.2 MiB (3%)
    Title                       : Thai
    Language                    : Thai
    Default                     : No
    Forced                      : No
    
    Audio #9
    ID                          : 10
    Format                      : E-AC-3
    Format/Info                 : Audio Coding 3
    Format settings, Endianness : Big
    Codec ID                    : A_EAC3
    Duration                    : 24mn 17s
    Bit rate mode               : Constant
    Bit rate                    : 128 Kbps
    Channel(s)                  : 2 channels
    Channel positions           : Front: L R
    Sampling rate               : 48.0 KHz
    Frame rate                  : 187.500 fps (256 spf)
    Compression mode            : Lossy
    Stream size                 : 22.2 MiB (3%)
    Title                       : Japanese
    Language                    : Japanese
    Default                     : No
    Forced                      : No
    
    Audio #10
    ID                          : 11
    Format                      : E-AC-3
    Format/Info                 : Audio Coding 3
    Format settings, Endianness : Big
    Codec ID                    : A_EAC3
    Duration                    : 24mn 17s
    Bit rate mode               : Constant
    Bit rate                    : 128 Kbps
    Channel(s)                  : 2 channels
    Channel positions           : Front: L R
    Sampling rate               : 48.0 KHz
    Frame rate                  : 187.500 fps (256 spf)
    Compression mode            : Lossy
    Stream size                 : 22.2 MiB (3%)
    Title                       : Japanese (Audio Des--cription)
    Language                    : Japanese
    Default                     : No
    Forced                      : No
    
    Text #1
    ID                          : 12
    Format                      : UTF-8
    Codec ID                    : S_TEXT/UTF8
    Codec ID/Info               : UTF-8 Plain Text
    Duration                    : 22mn 12s
    Bit rate                    : 1 bps
    Count of elements           : 7
    Stream size                 : 219 Bytes (0%)
    Title                       : English [Forced]
    Language                    : English
    Default                     : No
    Forced                      : Yes
    
    Text #2
    ID                          : 13
    Format                      : UTF-8
    Codec ID                    : S_TEXT/UTF8
    Codec ID/Info               : UTF-8 Plain Text
    Duration                    : 23mn 34s
    Bit rate                    : 43 bps
    Count of elements           : 302
    Stream size                 : 7.45 KiB (0%)
    Title                       : English [Full]
    Language                    : English
    Default                     : No
    Forced                      : No
    
    Text #3
    ID                          : 14
    Format                      : UTF-8
    Codec ID                    : S_TEXT/UTF8
    Codec ID/Info               : UTF-8 Plain Text
    Duration                    : 23mn 45s
    Bit rate                    : 1 bps
    Count of elements           : 8
    Stream size                 : 268 Bytes (0%)
    Title                       : Castilian [Forced]
    Language                    : Spanish
    Default                     : No
    Forced                      : Yes
    
    Text #4
    ID                          : 15
    Format                      : UTF-8
    Codec ID                    : S_TEXT/UTF8
    Codec ID/Info               : UTF-8 Plain Text
    Duration                    : 23mn 45s
    Bit rate                    : 46 bps
    Count of elements           : 304
    Stream size                 : 8.08 KiB (0%)
    Title                       : Castilian [Full]
    Language                    : Spanish
    Default                     : No
    Forced                      : No
    
    Text #5
    ID                          : 16
    Format                      : UTF-8
    Codec ID                    : S_TEXT/UTF8
    Codec ID/Info               : UTF-8 Plain Text
    Duration                    : 23mn 45s
    Bit rate                    : 0 bps
    Count of elements           : 5
    Stream size                 : 125 Bytes (0%)
    Title                       : Spanish [Forced]
    Language                    : Spanish
    Default                     : No
    Forced                      : Yes
    
    Text #6
    ID                          : 17
    Format                      : UTF-8
    Codec ID                    : S_TEXT/UTF8
    Codec ID/Info               : UTF-8 Plain Text
    Duration                    : 23mn 45s
    Bit rate                    : 45 bps
    Count of elements           : 303
    Stream size                 : 7.94 KiB (0%)
    Title                       : Spanish [Full]
    Language                    : Spanish
    Default                     : No
    Forced                      : No
    
    Text #7
    ID                          : 18
    Format                      : UTF-8
    Codec ID                    : S_TEXT/UTF8
    Codec ID/Info               : UTF-8 Plain Text
    Duration                    : 23mn 45s
    Bit rate                    : 1 bps
    Count of elements           : 8
    Stream size                 : 270 Bytes (0%)
    Title                       : French [Forced]
    Language                    : French
    Default                     : No
    Forced                      : Yes
    
    Text #8
    ID                          : 19
    Format                      : UTF-8
    Codec ID                    : S_TEXT/UTF8
    Codec ID/Info               : UTF-8 Plain Text
    Duration                    : 23mn 45s
    Bit rate                    : 48 bps
    Count of elements           : 304
    Stream size                 : 8.44 KiB (0%)
    Title                       : French [Full]
    Language                    : French
    Default                     : No
    Forced                      : No
    
    Text #9
    ID                          : 20
    Format                      : UTF-8
    Codec ID                    : S_TEXT/UTF8
    Codec ID/Info               : UTF-8 Plain Text
    Duration                    : 23mn 45s
    Bit rate                    : 1 bps
    Count of elements           : 8
    Stream size                 : 258 Bytes (0%)
    Title                       : German [Forced]
    Language                    : German
    Default                     : No
    Forced                      : Yes
    
    Text #10
    ID                          : 21
    Format                      : UTF-8
    Codec ID                    : S_TEXT/UTF8
    Codec ID/Info               : UTF-8 Plain Text
    Duration                    : 23mn 45s
    Bit rate                    : 47 bps
    Count of elements           : 304
    Stream size                 : 8.26 KiB (0%)
    Title                       : German [Full]
    Language                    : German
    Default                     : No
    Forced                      : No
    
    Text #11
    ID                          : 22
    Format                      : UTF-8
    Codec ID                    : S_TEXT/UTF8
    Codec ID/Info               : UTF-8 Plain Text
    Duration                    : 23mn 45s
    Bit rate                    : 1 bps
    Count of elements           : 8
    Stream size                 : 265 Bytes (0%)
    Title                       : Italian [Forced]
    Language                    : Italian
    Default                     : No
    Forced                      : Yes
    
    Text #12
    ID                          : 23
    Format                      : UTF-8
    Codec ID                    : S_TEXT/UTF8
    Codec ID/Info               : UTF-8 Plain Text
    Duration                    : 23mn 45s
    Bit rate                    : 45 bps
    Count of elements           : 304
    Stream size                 : 7.96 KiB (0%)
    Title                       : Italian [Full]
    Language                    : Italian
    Default                     : No
    Forced                      : No
    
    Text #13
    ID                          : 24
    Format                      : UTF-8
    Codec ID                    : S_TEXT/UTF8
    Codec ID/Info               : UTF-8 Plain Text
    Duration                    : 23mn 45s
    Bit rate                    : 45 bps
    Count of elements           : 303
    Stream size                 : 7.95 KiB (0%)
    Title                       : Portuguese [Full]
    Language                    : Portuguese
    Default                     : No
    Forced                      : No
    
    Text #14
    ID                          : 25
    Format                      : UTF-8
    Codec ID                    : S_TEXT/UTF8
    Codec ID/Info               : UTF-8 Plain Text
    Duration                    : 23mn 45s
    Bit rate                    : 1 bps
    Count of elements           : 8
    Stream size                 : 233 Bytes (0%)
    Title                       : Brazilian Portuguese [Forced]
    Language                    : Portuguese
    Default                     : No
    Forced                      : Yes
    
    Text #15
    ID                          : 26
    Format                      : UTF-8
    Codec ID                    : S_TEXT/UTF8
    Codec ID/Info               : UTF-8 Plain Text
    Duration                    : 23mn 45s
    Bit rate                    : 46 bps
    Count of elements           : 303
    Stream size                 : 8.03 KiB (0%)
    Title                       : Brazilian Portuguese [Full]
    Language                    : Portuguese
    Default                     : No
    Forced                      : No
    
    Text #16
    ID                          : 27
    Format                      : UTF-8
    Codec ID                    : S_TEXT/UTF8
    Codec ID/Info               : UTF-8 Plain Text
    Duration                    : 23mn 45s
    Bit rate                    : 38 bps
    Count of elements           : 303
    Stream size                 : 6.73 KiB (0%)
    Title                       : Polish [Full]
    Language                    : Polish
    Default                     : No
    Forced                      : No
    
    Text #17
    ID                          : 28
    Format                      : UTF-8
    Codec ID                    : S_TEXT/UTF8
    Codec ID/Info               : UTF-8 Plain Text
    Duration                    : 23mn 45s
    Bit rate                    : 41 bps
    Count of elements           : 304
    Stream size                 : 7.26 KiB (0%)
    Title                       : Swedish [Full]
    Language                    : Swedish
    Default                     : No
    Forced                      : No
    
    Text #18
    ID                          : 29
    Format                      : UTF-8
    Codec ID                    : S_TEXT/UTF8
    Codec ID/Info               : UTF-8 Plain Text
    Duration                    : 23mn 45s
    Bit rate                    : 43 bps
    Count of elements           : 304
    Stream size                 : 7.64 KiB (0%)
    Title                       : Danish [Full]
    Language                    : Danish
    Default                     : No
    Forced                      : No
    
    Text #19
    ID                          : 30
    Format                      : UTF-8
    Codec ID                    : S_TEXT/UTF8
    Codec ID/Info               : UTF-8 Plain Text
    Duration                    : 23mn 45s
    Bit rate                    : 41 bps
    Count of elements           : 303
    Stream size                 : 7.22 KiB (0%)
    Title                       : Finnish [Full]
    Language                    : Finnish
    Default                     : No
    Forced                      : No
    
    Text #20
    ID                          : 31
    Format                      : UTF-8
    Codec ID                    : S_TEXT/UTF8
    Codec ID/Info               : UTF-8 Plain Text
    Duration                    : 23mn 45s
    Bit rate                    : 40 bps
    Count of elements           : 303
    Stream size                 : 7.01 KiB (0%)
    Title                       : Dutch [Full]
    Language                    : Dutch
    Default                     : No
    Forced                      : No
    
    Text #21
    ID                          : 32
    Format                      : UTF-8
    Codec ID                    : S_TEXT/UTF8
    Codec ID/Info               : UTF-8 Plain Text
    Duration                    : 23mn 45s
    Bit rate                    : 44 bps
    Count of elements           : 304
    Stream size                 : 7.71 KiB (0%)
    Title                       : Norwegian [Full]
    Language                    : Norwegian
    Default                     : No
    Forced                      : No
    
    Text #22
    ID                          : 33
    Format                      : UTF-8
    Codec ID                    : S_TEXT/UTF8
    Codec ID/Info               : UTF-8 Plain Text
    Duration                    : 23mn 45s
    Bit rate                    : 74 bps
    Count of elements           : 304
    Stream size                 : 13.0 KiB (0%)
    Title                       : Russian [Full]
    Language                    : Russian
    Default                     : No
    Forced                      : No
    
    Text #23
    ID                          : 34
    Format                      : UTF-8
    Codec ID                    : S_TEXT/UTF8
    Codec ID/Info               : UTF-8 Plain Text
    Duration                    : 23mn 45s
    Bit rate                    : 41 bps
    Count of elements           : 302
    Stream size                 : 7.26 KiB (0%)
    Title                       : Hungarian [Full]
    Language                    : Hungarian
    Default                     : No
    Forced                      : No
    
    Text #24
    ID                          : 35
    Format                      : UTF-8
    Codec ID                    : S_TEXT/UTF8
    Codec ID/Info               : UTF-8 Plain Text
    Duration                    : 23mn 45s
    Bit rate                    : 75 bps
    Count of elements           : 302
    Stream size                 : 13.1 KiB (0%)
    Title                       : Greek [Full]
    Language                    : Greek
    Default                     : No
    Forced                      : No
    
    Text #25
    ID                          : 36
    Format                      : UTF-8
    Codec ID                    : S_TEXT/UTF8
    Codec ID/Info               : UTF-8 Plain Text
    Duration                    : 22mn 12s
    Bit rate                    : 64 bps
    Count of elements           : 302
    Stream size                 : 10.6 KiB (0%)
    Title                       : Hebrew [Full]
    Language                    : Hebrew
    Default                     : No
    Forced                      : No
    
    Text #26
    ID                          : 37
    Format                      : UTF-8
    Codec ID                    : S_TEXT/UTF8
    Codec ID/Info               : UTF-8 Plain Text
    Duration                    : 22mn 12s
    Bit rate                    : 72 bps
    Count of elements           : 303
    Stream size                 : 11.7 KiB (0%)
    Title                       : Arabic [Full]
    Language                    : Arabic
    Default                     : No
    Forced                      : No
    
    Text #27
    ID                          : 38
    Format                      : UTF-8
    Codec ID                    : S_TEXT/UTF8
    Codec ID/Info               : UTF-8 Plain Text
    Duration                    : 22mn 12s
    Bit rate                    : 56 bps
    Count of elements           : 303
    Stream size                 : 9.11 KiB (0%)
    Title                       : Romanian [Full]
    Language                    : Romanian
    Default                     : No
    Forced                      : No
    
    Text #28
    ID                          : 39
    Format                      : UTF-8
    Codec ID                    : S_TEXT/UTF8
    Codec ID/Info               : UTF-8 Plain Text
    Duration                    : 23mn 45s
    Bit rate                    : 42 bps
    Count of elements           : 304
    Stream size                 : 7.42 KiB (0%)
    Title                       : Czech [Full]
    Language                    : Czech
    Default                     : No
    Forced                      : No
    
    Text #29
    ID                          : 40
    Format                      : UTF-8
    Codec ID                    : S_TEXT/UTF8
    Codec ID/Info               : UTF-8 Plain Text
    Duration                    : 23mn 45s
    Bit rate                    : 44 bps
    Count of elements           : 304
    Stream size                 : 7.69 KiB (0%)
    Title                       : Indonesian [Full]
    Language                    : Indonesian
    Default                     : No
    Forced                      : No
    
    Text #30
    ID                          : 41
    Format                      : UTF-8
    Codec ID                    : S_TEXT/UTF8
    Codec ID/Info               : UTF-8 Plain Text
    Duration                    : 22mn 12s
    Bit rate                    : 69 bps
    Count of elements           : 300
    Stream size                 : 11.2 KiB (0%)
    Title                       : Vietnamese [Full]
    Language                    : Vietnamese
    Default                     : No
    Forced                      : No
    
    Text #31
    ID                          : 42
    Format                      : UTF-8
    Codec ID                    : S_TEXT/UTF8
    Codec ID/Info               : UTF-8 Plain Text
    Duration                    : 13mn 20s
    Bit rate                    : 5 bps
    Count of elements           : 7
    Stream size                 : 567 Bytes (0%)
    Title                       : Thai [Forced]
    Language                    : Thai
    Default                     : No
    Forced                      : Yes
    
    Text #32
    ID                          : 43
    Format                      : UTF-8
    Codec ID                    : S_TEXT/UTF8
    Codec ID/Info               : UTF-8 Plain Text
    Duration                    : 22mn 12s
    Bit rate                    : 108 bps
    Count of elements           : 303
    Stream size                 : 17.7 KiB (0%)
    Title                       : Thai [Full]
    Language                    : Thai
    Default                     : No
    Forced                      : No
    
    Text #33
    ID                          : 44
    Format                      : UTF-8
    Codec ID                    : S_TEXT/UTF8
    Codec ID/Info               : UTF-8 Plain Text
    Duration                    : 22mn 12s
    Bit rate                    : 48 bps
    Count of elements           : 302
    Stream size                 : 7.90 KiB (0%)
    Title                       : Korean [Full]
    Language                    : Korean
    Default                     : No
    Forced                      : No
    
    Text #34
    ID                          : 45
    Format                      : UTF-8
    Codec ID                    : S_TEXT/UTF8
    Codec ID/Info               : UTF-8 Plain Text
    Duration                    : 22mn 12s
    Bit rate                    : 48 bps
    Count of elements           : 303
    Stream size                 : 7.82 KiB (0%)
    Title                       : Chinese (Simplified) [Full]
    Language                    : Chinese
    Default                     : No
    Forced                      : No
    
    Text #35
    ID                          : 46
    Format                      : UTF-8
    Codec ID                    : S_TEXT/UTF8
    Codec ID/Info               : UTF-8 Plain Text
    Duration                    : 22mn 12s
    Bit rate                    : 45 bps
    Count of elements           : 303
    Stream size                 : 7.40 KiB (0%)
    Title                       : Chinese (Traditional) [Full]
    Language                    : Chinese
    Default                     : No
    Forced                      : No
    
    Text #36
    ID                          : 47
    Format                      : UTF-8
    Codec ID                    : S_TEXT/UTF8
    Codec ID/Info               : UTF-8 Plain Text
    Duration                    : 22mn 21s
    Bit rate                    : 95 bps
    Count of elements           : 401
    Stream size                 : 15.6 KiB (0%)
    Title                       : Japanese [Full]
    Language                    : Japanese
    Default                     : No
    Forced                      : No



    1
    http://www.filecondo.com/dl.php?f=Ta1f521IFJNI
    2
    http://www.filecondo.com/dl.php?f=Xbc05b1IFJOH
    3
    http://www.filecondo.com/dl.php?f=Wbd0b31IFJPE
    4
    http://www.filecondo.com/dl.php?f=Iacfa51IFJQC
    5
    http://www.filecondo.com/dl.php?f=c1a37a1IFJRz
    6
    http://www.filecondo.com/dl.php?f=d81a2b1IFJSy
    7
    http://www.filecondo.com/dl.php?f=W01c2d1IFJTv
    8
    http://www.filecondo.com/dl.php?f=ad89301IFJUt
    9
    http://www.filecondo.com/dl.php?f=k968101IFJVt
    10
    http://www.filecondo.com/dl.php?f=g430a71IFJWq
    11
    http://www.filecondo.com/dl.php?f=v0f91b1IFJXo
    12
    http://www.filecondo.com/dl.php?f=pfe9a31IFJYm

  2. #2
    Senior Member
    สมัครเมื่อ
    Jul 2013
    โพสต์
    3,211
    Thanks
    0
    Thanked 0 Times in 0 Posts
    ขอบคุณครับ ชอบนะเรื่องนี้ น่ารักดี

+ ตอบกลับกระทู้

ข้อมูลกระทู้

Users Browsing this Thread

ในขณะนี้มี 1 ท่านดูกระทู้อยู่. (0 สมาชิกและ 1 ผู้เยี่ยมชม)

     

กฎการโพสต์ข้อความ

  • ท่าน ไม่สามารถ ตั้งกระทู้ใหม่ได้
  • ท่าน ไม่สามารถ ตอบกระทู้ได้
  • ท่าน ไม่สามารถ แนบไฟล์ได้
  • ท่าน ไม่สามารถ แก้ไขข้อความโพสต์ได้
  • BB code สถานะ เปิด
  • Smilies สถานะ เปิด
  • [IMG] สถานะ เปิด
  • HTML สถานะ ปิด