+ ตอบกลับกระทู้
สรุปผลการค้นหา 1 ถึง 1 จากทั้งหมด 1
  1. #1
    Administrators รูปส่วนตัว Duckload.us
    สมัครเมื่อ
    Dec 2010
    โพสต์
    131,531
    Thanks
    7
    Thanked 135,188 Times in 59,793 Posts

    Lightbulb [เกาหลี]-Bring It On, Ghost (วุ่นรักวิญญาณหลอน) [2016][Audio Th+Ko][Sub Thai+เยอะ]-WEB-DL.H.264.1080p. [From HD-TV]-[พากย์ไทย บรรยายไทย]



    Drama: Bring It On, Ghost
    Native Title: 싸 우 자 귀 신 아
    Also Known As: Ssawooja Gwishina , Let's Fight, Ghost , Hey Ghost, Let's Fight ,
    Directors: Park Joon Hwa
    Screenwriters: Lee Dae II
    Country: South Korea
    Episodes: 16
    Aired: Jul 11, 2016 - Aug 30, 2016
    Aired On: Monday, Tuesday
    Original Network: tvN
    Duration: 60 min.
    Rating: 15+ - Teens 15 or older

    เรื่องย่อ:หนุ่มนักศึกษาผู้มีพลังจิตรับผีสาวความจำเ สื่อมมาเป็นคู่หูช่วยกันปราบเหล่าวิญญาณร้าย

    นักแสดงนำ:แท็กย็อน,คิมโซฮยอน,ควอนยูล

    ผู้สร้าง:พัคจุนฮวา

    Screen Shot:





    File Info:
    General
    Unique ID : 181858039037668274233644530117698854197 (0x88D09594C066DCD49D6835672DBF1D35)
    Complete name : C:UsersBabeDownloadsTorrentUploadBring It On, Ghost (วุ่นรักวิญญาณหลอน) [2016]Bring.It.On.Ghost.2016.E01.1080p.NF.WEB-DL.DDP2.0.x264-deeplife.vt.mkv
    Format : Matroska
    Format version : Version 4
    File size : 2.29 GiB
    Duration : 58 min 44 s
    Overall bit rate mode : Variable
    Overall bit rate : 5 579 kb/s
    Encoded date : UTC 2019-12-23 03:28:58
    Writing application : mkvmerge v41.0.0 ('Smarra') 64-bit
    Writing library : libebml v1.3.9 + libmatroska v1.5.2
    Cover : Yes
    Attachments : cover

    Video
    ID : 1
    Format : AVC
    Format/Info : Advanced Video Codec
    Format profile : [email protected]
    Format settings : CABAC / 3 Ref Frames
    Format settings, CABAC : Yes
    Format settings, Reference fra : 3 frames
    Codec ID : V_MPEG4/ISO/AVC
    Duration : 58 min 43 s
    Bit rate mode : Variable
    Bit rate : 5 360 kb/s
    Maximum bit rate : 8 040 kb/s
    Width : 1 920 pixels
    Height : 1 080 pixels
    Display aspect ratio : 16:9
    Frame rate mode : Constant
    Frame rate : 23.976 (24000/1001) FPS
    Color space : YUV
    Chroma subsampling : 4:2:0
    Bit depth : 8 bits
    Scan type : Progressive
    Bits/(Pixel*Frame) : 0.108
    Stream size : 2.20 GiB (96%)
    Writing library : x264 core 148 r2715 7e75228
    Encoding settings : cabac=1 / ref=3 / deblock=1:0:0 / analyse=0x1:0x111 / me=umh / subme=10 / psy=1 / psy_rd=1.00:0.00 / mixed_ref=1 / me_range=24 / chroma_me=1 / trellis=2 / 8x8dct=0 / cqm=0 / deadzone=21,11 / fast_pskip=1 / chroma_qp_offset=-2 / threads=8 / lookahead_threads=1 / sliced_threads=0 / nr=0 / decimate=1 / interlaced=0 / bluray_compat=0 / stitchable=1 / constrained_intra=0 / bframes=2 / b_pyramid=0 / b_adapt=2 / b_bias=0 / direct=3 / weightb=1 / open_gop=0 / weightp=2 / keyint=250 / keyint_min=23 / scenecut=0 / intra_refresh=0 / rc_lookahead=48 / rc=2pass / mbtree=1 / bitrate=5360 / ratetol=1.0 / qcomp=0.50 / qpmin=6 / qpmax=51 / qpstep=4 / cplxblur=20.0 / qblur=0.5 / vbv_maxrate=8040 / vbv_bufsize=10720 / nal_hrd=vbr / filler=0 / ip_ratio=1.40 / aq=1:1.00
    Language : Korean
    Default : Yes
    Forced : No

    Audio #1
    ID : 2
    Format : E-AC-3
    Format/Info : Enhanced AC-3
    Commercial name : Dolby Digital Plus
    Codec ID : A_EAC3
    Duration : 58 min 44 s
    Bit rate mode : Constant
    Bit rate : 128 kb/s
    Channel(s) : 2 channels
    Channel layout : L R
    Sampling rate : 48.0 kHz
    Frame rate : 31.250 FPS (1536 SPF)
    Compression mode : Lossy
    Stream size : 53.8 MiB (2%)
    Language : Korean
    Service kind : Complete Main
    Default : Yes
    Forced : No

    Audio #2
    ID : 3
    Format : AAC LC
    Format/Info : Advanced Audio Codec Low Complexity
    Codec ID : A_AAC-2
    Duration : 58 min 43 s
    Bit rate : 96.0 kb/s
    Channel(s) : 2 channels
    Channel layout : L R
    Sampling rate : 44.1 kHz
    Frame rate : 43.066 FPS (1024 SPF)
    Compression mode : Lossy
    Stream size : 40.3 MiB (2%)
    Title : Thai Monomax
    Language : Thai
    Default : No
    Forced : No

    Text #1
    ID : 4
    Format : UTF-8
    Codec ID : S_TEXT/UTF8
    Codec ID/Info : UTF-8 Plain Text
    Duration : 57 min 53 s
    Bit rate : 50 b/s
    Count of elements : 685
    Stream size : 21.5 KiB (0%)
    Language : English
    Default : No
    Forced : No

    Text #2
    ID : 5
    Format : UTF-8
    Codec ID : S_TEXT/UTF8
    Codec ID/Info : UTF-8 Plain Text
    Duration : 57 min 53 s
    Bit rate : 83 b/s
    Count of elements : 683
    Stream size : 35.4 KiB (0%)
    Language : Arabic
    Default : No
    Forced : No

    Text #3
    ID : 6
    Format : UTF-8
    Codec ID : S_TEXT/UTF8
    Codec ID/Info : UTF-8 Plain Text
    Duration : 57 min 52 s
    Bit rate : 55 b/s
    Count of elements : 687
    Stream size : 23.6 KiB (0%)
    Language : German
    Default : No
    Forced : No

    Text #4
    ID : 7
    Format : UTF-8
    Codec ID : S_TEXT/UTF8
    Codec ID/Info : UTF-8 Plain Text
    Duration : 57 min 53 s
    Bit rate : 48 b/s
    Count of elements : 672
    Stream size : 20.5 KiB (0%)
    Title : Latin American
    Language : Spanish
    Default : No
    Forced : No

    Text #5
    ID : 8
    Format : UTF-8
    Codec ID : S_TEXT/UTF8
    Codec ID/Info : UTF-8 Plain Text
    Duration : 57 min 51 s
    Bit rate : 53 b/s
    Count of elements : 682
    Stream size : 22.7 KiB (0%)
    Language : French
    Default : No
    Forced : No

    Text #6
    ID : 9
    Format : UTF-8
    Codec ID : S_TEXT/UTF8
    Codec ID/Info : UTF-8 Plain Text
    Duration : 57 min 53 s
    Bit rate : 48 b/s
    Count of elements : 687
    Stream size : 20.4 KiB (0%)
    Language : Indonesian
    Default : No
    Forced : No

    Text #7
    ID : 10
    Format : UTF-8
    Codec ID : S_TEXT/UTF8
    Codec ID/Info : UTF-8 Plain Text
    Duration : 57 min 53 s
    Bit rate : 48 b/s
    Count of elements : 687
    Stream size : 20.7 KiB (0%)
    Title : Brazilian
    Language : Portuguese
    Default : No
    Forced : No

    Text #8
    ID : 11
    Format : UTF-8
    Codec ID : S_TEXT/UTF8
    Codec ID/Info : UTF-8 Plain Text
    Duration : 57 min 53 s
    Bit rate : 116 b/s
    Count of elements : 691
    Stream size : 49.6 KiB (0%)
    Language : Thai
    Default : Yes
    Forced : No

    Text #9
    ID : 12
    Format : UTF-8
    Codec ID : S_TEXT/UTF8
    Codec ID/Info : UTF-8 Plain Text
    Duration : 57 min 53 s
    Bit rate : 45 b/s
    Count of elements : 671
    Stream size : 19.4 KiB (0%)
    Language : Turkish
    Default : No
    Forced : No

    Text #10
    ID : 13
    Format : UTF-8
    Codec ID : S_TEXT/UTF8
    Codec ID/Info : UTF-8 Plain Text
    Duration : 57 min 53 s
    Bit rate : 57 b/s
    Count of elements : 686
    Stream size : 24.6 KiB (0%)
    Language : Vietnamese
    Default : No
    Forced : No

    Text #11
    ID : 14
    Format : UTF-8
    Codec ID : S_TEXT/UTF8
    Codec ID/Info : UTF-8 Plain Text
    Duration : 57 min 53 s
    Bit rate : 43 b/s
    Count of elements : 685
    Stream size : 18.6 KiB (0%)
    Title : Simplified
    Language : Chinese
    Default : No
    Forced : No

    Text #12
    ID : 15
    Format : UTF-8
    Codec ID : S_TEXT/UTF8
    Codec ID/Info : UTF-8 Plain Text
    Duration : 57 min 53 s
    Bit rate : 46 b/s
    Count of elements : 687
    Stream size : 19.8 KiB (0%)
    Title : Traditional
    Language : Chinese
    Default : No
    Forced : No

    Credit:
    1.ไฟล์ต้นฉบับจาก avistaz ไม่มีการปรับ Bit rate ไม่มี Logo
    2.รวมไฟล์เสียงไทย Monomax, ใส่ปก และ Audio Sync ด้วย mkvtoolnix
    3.สุ่มตรวจทุกไฟล์ (ถ้าผิดพลาดต้องขออภัย)


    1
    http://www.filecondo.com/dl.php?f=Zf537b1IK4Q3
    2
    http://www.filecondo.com/dl.php?f=178b941IK4QZ
    3
    http://www.filecondo.com/dl.php?f=f758241IK4S1
    4
    http://www.filecondo.com/dl.php?f=ia87ac1IK4SY
    5
    http://www.filecondo.com/dl.php?f=93b8431IK4TZ
    6
    http://www.filecondo.com/dl.php?f=40628b1IK4V3
    7
    http://www.filecondo.com/dl.php?f=H19a301IK4VR
    8
    http://www.filecondo.com/dl.php?f=002d831IK4WY
    9
    http://www.filecondo.com/dl.php?f=c8a98d1IK4XK
    10
    http://www.filecondo.com/dl.php?f=v8549e1IK4YM
    11
    http://www.filecondo.com/dl.php?f=r3a8641IK4ZI
    12
    http://www.filecondo.com/dl.php?f=vd4fb11IK50F
    13
    http://www.filecondo.com/dl.php?f=Hf3dd11IK51I
    14
    http://www.filecondo.com/dl.php?f=fad4c21IK52B
    15
    http://www.filecondo.com/dl.php?f=d58f771IK53K
    16
    http://www.filecondo.com/dl.php?f=gac7e61IK54U

  2. The Following User Says Thank You to Duckload.us For This Useful Post:

    JOMMY_2 (12-28-2019)

+ ตอบกลับกระทู้

ข้อมูลกระทู้

Users Browsing this Thread

ในขณะนี้มี 1 ท่านดูกระทู้อยู่. (0 สมาชิกและ 1 ผู้เยี่ยมชม)

     

กฎการโพสต์ข้อความ

  • ท่าน ไม่สามารถ ตั้งกระทู้ใหม่ได้
  • ท่าน ไม่สามารถ ตอบกระทู้ได้
  • ท่าน ไม่สามารถ แนบไฟล์ได้
  • ท่าน ไม่สามารถ แก้ไขข้อความโพสต์ได้
  • BB code สถานะ เปิด
  • Smilies สถานะ เปิด
  • [IMG] สถานะ เปิด
  • HTML สถานะ ปิด