"กลุ่มทางศาสนาคู่ปรับส่งชายสองคนไปทำภารกิจเดนตายข้ ามชาติเดียวกัน แต่ความเซ่อซ่าของทั้งคู่ก็พาออกนอกเส้นทางจนเกิดเป็ นความฮากระจาย"









Format : Matroska
Format version : Version 4 / Version 2
File size : 6.37 GiB
Duration : 2 h 13 min
Overall bit rate : 6 824 kb/s
Movie name : [email protected]
Encoded date : UTC 2019-12-18 11:05:29
Writing application : mkvmerge v41.0.0 ('Smarra') 64-bit
Writing library : libebml v1.3.9 + libmatroska v1.5.2

Video
ID : 1
Format : AVC
Format/Info : Advanced Video Codec
Format profile : [email protected]
Format settings, CABAC : Yes
Format settings, RefFrames : 3 frames
Codec ID : V_MPEG4/ISO/AVC
Duration : 2 h 13 min
Bit rate : 6 123 kb/s
Width : 1 920 pixels
Height : 1 080 pixels
Display aspect ratio : 16:9
Frame rate mode : Constant
Frame rate : 24.000 FPS
Color space : YUV
Chroma subsampling : 4:2:0
Bit depth : 8 bits
Scan type : Progressive
Bits/(Pixel*Frame) : 0.123
Stream size : 5.71 GiB (90%)
Default : Yes
Forced : No
Comment : NETFLIX BY ARGON

Audio
ID : 2
Format : E-AC-3
Format/Info : Enhanced Audio Coding 3
Format settings, Endianness : Big
Codec ID : A_EAC3
Duration : 2 h 13 min
Bit rate mode : Constant
Bit rate : 640 kb/s
Channel(s) : 6 channels
Channel positions : Front: L C R, Side: L R, LFE
Sampling rate : 48.0 kHz
Frame rate : 187.500 FPS (256 SPF)
Compression mode : Lossy
Stream size : 611 MiB (9%)
Title : HINDI AC3
Language : Hindi
Service kind : Complete Main
Default : Yes
Forced : No

Text #1
ID : 3
Format : PGS
Muxing mode : zlib
Codec ID : S_HDMV/PGS
Codec ID/Info : Picture based subtitle format used on BDs/HD-DVDs
Duration : 2 h 11 min
Bit rate : 50.7 kb/s
Count of elements : 3240
Stream size : 47.5 MiB (1%)
Title : TH_PGS
Language : Thai
Default : Yes
Forced : No

Text #2
ID : 4
Format : VobSub
Muxing mode : zlib
Codec ID : S_VOBSUB
Codec ID/Info : Picture based subtitle format used on DVDs
Duration : 2 h 11 min
Bit rate : 10.3 kb/s
Count of elements : 1620
Stream size : 9.68 MiB (0%)
Title : TH_VOBSUB
Language : Thai
Default : No
Forced : No

Text #3
ID : 5
Format : VobSub
Muxing mode : zlib
Codec ID : S_VOBSUB
Codec ID/Info : Picture based subtitle format used on DVDs
Duration : 2 h 11 min
Bit rate : 10.3 kb/s
Count of elements : 1620
Stream size : 9.67 MiB (0%)
Title : TH_VOBSUB_YELLOW
Language : Thai
Default : No
Forced : No

Text #4
ID : 6
Format : PGS
Muxing mode : zlib
Codec ID : S_HDMV/PGS
Codec ID/Info : Picture based subtitle format used on BDs/HD-DVDs
Duration : 2 h 3 min
Bit rate : 32.0 kb/s
Count of elements : 2534
Stream size : 28.4 MiB (0%)
Title : EN_PGS
Language : English
Default : No
Forced : No

http://cornfile.com/yaioxghjoh9w
http://www.mekafile.com/dl.php?f=TB855ec2Wrl6