+ ตอบกลับกระทู้
สรุปผลการค้นหา 1 ถึง 1 จากทั้งหมด 1
  1. #1
    Administrators รูปส่วนตัว Duckload.us
    สมัครเมื่อ
    Dec 2010
    โพสต์
    114,512
    Thanks
    7
    Thanked 120,851 Times in 54,337 Posts

    Lightbulb [เกาหลี]-•[Netflix]• Doctors : ตรวจใจเธอให้เจอรัก [เสียงเกาหลี]-[บรรยายไทย + อังกฤษ]-[ซับไทย MASTER From Netflix]-[Soundtrack บรรยายไทย]-WEB-DL.H.264.1080p



    ด็กสาววัยรุ่นหัวรั้นและเกเรได้พบกับคุณครูผู้มีความ เห็นอกเห็นใจซึ่งกระตุ้นให้เธอเปลี่ยนเส้นทางชีวิตแล ะกลายมาเป็นศัลยแพทย์ประสาทผู้ช่ำชอง

    Code:
    Format                      : Matroska
    Format version              : Version 4 / Version 2
    File size                   : 3.10 GiB
    Duration                    : 1 h 1 min
    Overall bit rate mode       : Variable
    Overall bit rate            : 7 274 kb/s
    
    Video
    ID                          : 1
    Format                      : AVC
    Format/Info                 : Advanced Video Codec
    Format profile              : [email protected]
    Format settings, CABAC      : Yes
    Format settings, ReFrames   : 3 frames
    Codec ID                    : V_MPEG4/ISO/AVC
    Duration                    : 1 h 1 min
    Bit rate mode               : Variable
    Bit rate                    : 7 150 kb/s
    Maximum bit rate            : 10.7 Mb/s
    Width                       : 1 920 pixels
    Height                      : 1 080 pixels
    Display aspect ratio        : 16:9
    Frame rate mode             : Constant
    Frame rate                  : 23.976 (24000/1001) FPS
    Color space                 : YUV
    Chroma subsampling          : 4:2:0
    Bit depth                   : 8 bits
    Scan type                   : Progressive
    Bits/(Pixel*Frame)          : 0.144
    Stream size                 : 2.99 GiB (96%)
    Writing library             : x264 core 148 r2715 7e75228
    Encoding settings           : cabac=1 / ref=3 / deblock=1:0:0 / analyse=0x1:0x111 / me=umh / subme=10 / psy=1 / psy_rd=1.00:0.00 / mixed_ref=1 / me_range=24 / chroma_me=1 / trellis=2 / 8x8dct=0 / cqm=0 / deadzone=21,11 / fast_pskip=1 / chroma_qp_offset=-2 / threads=8 / lookahead_threads=1 / sliced_threads=0 / nr=0 / decimate=1 / interlaced=0 / bluray_compat=0 / stitchable=1 / constrained_intra=0 / bframes=2 / b_pyramid=0 / b_adapt=2 / b_bias=0 / direct=3 / weightb=1 / open_gop=0 / weightp=2 / keyint=48 / keyint_min=25 / scenecut=0 / intra_refresh=0 / rc_lookahead=48 / rc=2pass / mbtree=1 / bitrate=7150 / ratetol=1.0 / qcomp=0.50 / qpmin=6 / qpmax=51 / qpstep=4 / cplxblur=20.0 / qblur=0.5 / vbv_maxrate=10725 / vbv_bufsize=14300 / nal_hrd=vbr / filler=0 / ip_ratio=1.40 / aq=1:1.00
    Default                     : Yes
    Forced                      : No
    DURATION                    : 01:01:04.786000000
    HANDLER_NAME                : Video Media Handler
    
    Audio
    ID                          : 2
    Format                      : E-AC-3
    Format/Info                 : Enhanced Audio Coding 3
    Format settings, Endianness : Big
    Codec ID                    : A_EAC3
    Duration                    : 1 h 1 min
    Bit rate mode               : Constant
    Bit rate                    : 128 kb/s
    Channel(s)                  : 2 channels
    Channel positions           : Front: L R
    Sampling rate               : 48.0 kHz
    Frame rate                  : 187.500 FPS (256 spf)
    Bit depth                   : 32 bits
    Compression mode            : Lossy
    Stream size                 : 55.9 MiB (2%)
    Title                       : 韩  文   [原  始  ] [2.0]
    Language                    : Korean
    Service kind                : Complete Main
    Default                     : Yes
    Forced                      : No
    DURATION                    : 01:01:05.056000000
    HANDLER_NAME                : Audio Media Handler
    
    Text #1
    ID                          : 3
    Format                      : UTF-8
    Codec ID                    : S_TEXT/UTF8
    Codec ID/Info               : UTF-8 Plain Text
    Title                       : 简  体  中  文  
    Language                    : Chinese-Hans
    Default                     : No
    Forced                      : No
    DURATION                    : 01:01:02.617000000
    
    Text #2
    ID                          : 4
    Format                      : UTF-8
    Codec ID                    : S_TEXT/UTF8
    Codec ID/Info               : UTF-8 Plain Text
    Title                       : 英  语  
    Language                    : English
    Default                     : No
    Forced                      : No
    DURATION                    : 01:01:02.825000000
    
    Text #3
    ID                          : 5
    Format                      : UTF-8
    Codec ID                    : S_TEXT/UTF8
    Codec ID/Info               : UTF-8 Plain Text
    Title                       : 阿  拉  伯  语  
    Language                    : Arabic
    Default                     : No
    Forced                      : No
    DURATION                    : 01:01:02.825000000
    
    Text #4
    ID                          : 6
    Format                      : UTF-8
    Codec ID                    : S_TEXT/UTF8
    Codec ID/Info               : UTF-8 Plain Text
    Title                       : 泰  语  
    Language                    : Thai
    Default                     : No
    Forced                      : No
    DURATION                    : 01:01:02.784000000
    
    Text #5
    ID                          : 7
    Format                      : UTF-8
    Codec ID                    : S_TEXT/UTF8
    Codec ID/Info               : UTF-8 Plain Text
    Title                       : 法  语  
    Language                    : French
    Default                     : No
    Forced                      : No
    DURATION                    : 01:01:02.825000000
    
    Text #6
    ID                          : 8
    Format                      : UTF-8
    Codec ID                    : S_TEXT/UTF8
    Codec ID/Info               : UTF-8 Plain Text
    Title                       : 繁  体  中  文  
    Language                    : Chinese-Hant
    Default                     : No
    Forced                      : No
    DURATION                    : 01:01:03.159000000
    
    Text #7
    ID                          : 9
    Format                      : UTF-8
    Codec ID                    : S_TEXT/UTF8
    Codec ID/Info               : UTF-8 Plain Text
    Title                       : 土  耳  其  文  
    Language                    : Turkish
    Default                     : No
    Forced                      : No
    DURATION                    : 01:01:02.825000000










    1
    http://www.filecondo.com/dl.php?f=ac7b961INKkQ
    2
    http://www.filecondo.com/dl.php?f=0dbb761INKlF
    3
    http://www.filecondo.com/dl.php?f=A47d1d1INKmC
    4
    http://www.filecondo.com/dl.php?f=P358e41INKny
    5
    http://www.filecondo.com/dl.php?f=c73b0a1INKow
    6
    http://www.filecondo.com/dl.php?f=q5e2b41INKpz
    7
    http://www.filecondo.com/dl.php?f=eca8511INKqw
    8
    http://www.filecondo.com/dl.php?f=a00b771INKrt
    9
    http://www.filecondo.com/dl.php?f=h8b76d1INKsr
    10
    http://www.filecondo.com/dl.php?f=af1e021INKtk
    11
    http://www.filecondo.com/dl.php?f=Kbf1ce1INKuk
    12
    http://www.filecondo.com/dl.php?f=b576401INKvj
    13
    http://www.filecondo.com/dl.php?f=5c2bec1INKwi
    14
    http://www.filecondo.com/dl.php?f=wdcbe21INKxf
    15
    http://www.filecondo.com/dl.php?f=hfbd011INKyc
    16
    http://www.filecondo.com/dl.php?f=M425391INKz9
    17
    http://www.filecondo.com/dl.php?f=Lf9a7c1INKA9
    18
    http://www.filecondo.com/dl.php?f=zd6ac41INKB6
    19
    http://www.filecondo.com/dl.php?f=jce7991INKC4
    20
    http://www.filecondo.com/dl.php?f=ga37731INKD4
    http://www.filecondo.com/dl.php?f=w1453b1JplEe fix

  2. The Following User Says Thank You to Duckload.us For This Useful Post:

    kappa (03-29-2020)

+ ตอบกลับกระทู้

ข้อมูลกระทู้

Users Browsing this Thread

ในขณะนี้มี 1 ท่านดูกระทู้อยู่. (0 สมาชิกและ 1 ผู้เยี่ยมชม)

     

กฎการโพสต์ข้อความ

  • ท่าน ไม่สามารถ ตั้งกระทู้ใหม่ได้
  • ท่าน ไม่สามารถ ตอบกระทู้ได้
  • ท่าน ไม่สามารถ แนบไฟล์ได้
  • ท่าน ไม่สามารถ แก้ไขข้อความโพสต์ได้
  • BB code สถานะ เปิด
  • Smilies สถานะ เปิด
  • [IMG] สถานะ เปิด
  • HTML สถานะ ปิด