+ ตอบกลับกระทู้
สรุปผลการค้นหา 1 ถึง 2 จากทั้งหมด 2
  1. #1
    Administrators รูปส่วนตัว Duckload.us
    สมัครเมื่อ
    Dec 2010
    โพสต์
    110,030
    Thanks
    7
    Thanked 115,465 Times in 52,800 Posts

    Question (ฝรั่ง.ใหม่.พากย์ไทยมาสเตอร์)-Fighting with My Family (2019) สู้ท้าฝันเพื่อครอบครัว-[BR.1080p][ Sound:Eng DTS 5.1/Thai AC3 2.0:Master][SUB:Eng/Thai.PGS/Vob]



    ถ่ายทอดเรื่องราวของครอบครัวของ ริคกี้, จูเลีย, เพจ และแซ็ค พวกเขาเลี้ยงชีวิตด้วยการเป็นนักมวยปล้ำในเวทีเล็ก ๆ ต่อมาเพจและแซ็ค ได้รับการติดต่อให้ไปทดสอบคัดเลือกเป็นนักมวยปล้ำอาช ีพกับ WWE (World Wresting Entertainment) ทั้งคู่จึงคว้าโอกาสสำคัญในครั้งนี้ไว้ เพื่อที่จะพลิกฝันสู่อนาคตอันสดใส แต่อย่างไรก็ตาม พี่น้องคู่นี้ก็รู้ดีว่าการก้าวไปเป็นซุปเปอร์สตาร์จ ะส่งผลกระทบต่อความสัมพันธ์ของพวกเขา

    Format : Matroska
    Format version : Version 4
    File size : 4.06 GiB
    Duration : 1 h 48 min
    Overall bit rate : 5 360 kb/s
    Movie name : Fighting.with.My.Family.2019.DC.1080p.BluRay.H264. _©GOLD CUP™

    Video
    ID : 1
    Format : AVC
    Format/Info : Advanced Video Codec
    Format profile : [email protected]
    Format settings : CABAC / 1 Ref Frames
    Format settings, CABAC : Yes
    Format settings, Reference : 1 frame
    Format settings, GOP : M=1, N=25
    Codec ID : V_MPEG4/ISO/AVC
    Duration : 1 h 48 min
    Bit rate mode : Constant
    Bit rate : 3 800 kb/s
    Width : 1 920 pixels
    Height : 800 pixels
    Display aspect ratio : 2.40:1
    Frame rate mode : Constant
    Frame rate : 29.970 (30000/1001) FPS
    Color space : YUV
    Chroma subsampling : 4:2:0
    Bit depth : 8 bits
    Scan type : Progressive
    Bits/(Pixel*Frame) : 0.083
    Stream size : 2.87 GiB (71%)
    Title : Fighting.with.My.Family.2019.DC.1080p.BluRay.H264. _©GOLD CUP™
    Language : English
    Default : Yes
    Forced : No

    Audio #1
    ID : 2
    Format : AC-3
    Format/Info : Audio Coding 3
    Commercial name : Dolby Digital
    Codec ID : A_AC3
    Duration : 1 h 48 min
    Bit rate mode : Constant
    Bit rate : 640 kb/s
    Channel(s) : 2 channels
    Channel layout : L R
    Sampling rate : 44.1 kHz
    Frame rate : 28.711 FPS (1536 SPF)
    Compression mode : Lossy
    Stream size : 497 MiB (12%)
    Title : 2.0 AC3 TH 640k 496m_©GOLD CUP™
    Language : Thai
    Service kind : Complete Main
    Default : Yes
    Forced : No

    Audio #2
    ID : 3
    Format : DTS
    Format/Info : Digital Theater Systems
    Codec ID : A_DTS
    Duration : 1 h 48 min
    Bit rate mode : Constant
    Bit rate : 661 kb/s
    Channel(s) : 6 channels
    Channel layout : C L R Ls Rs LFE
    Sampling rate : 8 000 Hz
    Frame rate : 7.813 FPS (1024 SPF)
    Bit depth : 16 bits
    Compression mode : Lossy
    Stream size : 513 MiB (12%)
    Title : dts 5.1 EN 8000-512m_©GOLD CUP™
    Language : English
    Default : No
    Forced : No

    Audio #3
    ID : 4
    Format : AAC LC
    Format/Info : Advanced Audio Codec Low Complexity
    Codec ID : A_AAC-2
    Duration : 1 h 48 min
    Bit rate : 224 kb/s
    Channel(s) : 6 channels
    Channel layout : C L R Ls Rs LFE
    Sampling rate : 48.0 kHz
    Frame rate : 46.875 FPS (1024 SPF)
    Compression mode : Lossy
    Stream size : 174 MiB (4%)
    Title : 5.1 AAC 224k 174m_©GOLD CUP™
    Language : English
    Default : No
    Forced : No

    Text #1
    ID : 5
    Format : PGS
    Muxing mode : zlib
    Codec ID : S_HDMV/PGS
    Codec ID/Info : Picture based subtitle format used on BDs/HD-DVDs
    Duration : 1 h 48 min
    Bit rate : 23.3 kb/s
    Count of elements : 3500
    Stream size : 18.0 MiB (0%)
    Title : TH.PGS.white.80-80-10_©GOLD CUP™
    Language : Thai
    Default : Yes
    Forced : No

    Text #2
    ID : 6
    Format : PGS
    Muxing mode : zlib
    Codec ID : S_HDMV/PGS
    Codec ID/Info : Picture based subtitle format used on BDs/HD-DVDs
    Duration : 1 h 45 min
    Bit rate : 28.4 kb/s
    Count of elements : 3778
    Stream size : 21.5 MiB (1%)
    Title : EN.PGS.yellow.80-55-10_©GOLD CUP™
    Language : English
    Default : No
    Forced : No

    Text #3
    ID : 7
    Format : VobSub
    Muxing mode : zlib
    Codec ID : S_VOBSUB
    Codec ID/Info : Picture based subtitle format used on DVDs
    Duration : 1 h 44 min
    Bit rate : 15.4 kb/s
    Count of elements : 2137
    Stream size : 11.5 MiB (0%)
    Title : EN.SDH.Vob.Master_©GOLD CUP™
    Language : English
    Default : No
    Forced : No






    Download: cornfile
    http://cornfile.com/bnn81iwmw1c8
    Download: mekafile
    http://www.mekafile.com/dl.php?f=ls523dc3NMxO

  2. The Following 2 Users Say Thank You to Duckload.us For This Useful Post:

    amorn wichian (01-09-2020), apichartdear (01-09-2020)

  3. #2
    Senior Member
    สมัครเมื่อ
    Jun 2014
    โพสต์
    2,209
    Thanks
    0
    Thanked 0 Times in 0 Posts
    ขอบคุณครับ

+ ตอบกลับกระทู้

ข้อมูลกระทู้

Users Browsing this Thread

ในขณะนี้มี 1 ท่านดูกระทู้อยู่. (0 สมาชิกและ 1 ผู้เยี่ยมชม)

     

กฎการโพสต์ข้อความ

  • ท่าน ไม่สามารถ ตั้งกระทู้ใหม่ได้
  • ท่าน ไม่สามารถ ตอบกระทู้ได้
  • ท่าน ไม่สามารถ แนบไฟล์ได้
  • ท่าน ไม่สามารถ แก้ไขข้อความโพสต์ได้
  • BB code สถานะ เปิด
  • Smilies สถานะ เปิด
  • [IMG] สถานะ เปิด
  • HTML สถานะ ปิด