+ ตอบกลับกระทู้
สรุปผลการค้นหา 1 ถึง 3 จากทั้งหมด 3
  1. #1
    Administrators รูปส่วนตัว Duckload.us
    สมัครเมื่อ
    Dec 2010
    โพสต์
    116,849
    Thanks
    7
    Thanked 123,153 Times in 55,207 Posts

    Cool [ฝรั่ง]- Marvel s Agents of S H I E L D Season 6 (2019) EP01-13 [END] มาร์เวล หน่วยปฏิบัติการสายลับชิลด์ ปี6 ตอนที่ 1-13 [จบ] [2019]-WEB-DL.H.264.1080p. [Hi-def rip from Master]-[พากย์ไทย]



    เรื่องย่อ : ซีรี่ส์จะเป็นเรื่องราวของเจ้าหน้าที่หน่วยชีลด์ ตัวละครที่เราเห็นในหนังซูเปอร์ฮีโร่หลายเรื่องของมา ร์เวล เช่น Iron Man, Thor และ The Avengers ที่ออกสืบเรื่องราวแปลกประหลาดทั่วโลก เพื่อช่วยเหลือมนุษย์ให้พ้นจากเรื่องเหนือธรรมชาติทุ กรูปแบบ คลาร์ก เกร็กก์ กลับมารับบทเป็นเจ้าหน้าที่ ฟิล โคลสัน อีกครั้ง นำทีมการสืบสวนต่างๆ สมทบด้วย เบรทท์ ดาลตัน ในบทเจ้าหน้าที่ แกรนท์ วอร์ด เจ้าหน้าที่ที่เชี่ยวชาญด้านการต่อสู้และจารกรรม มิงนา เวน รับบทเป็นเจ้าหน้าที่ เมลินดา เมย์ ผู้เชี่ยวชาญด้านการขับเครื่องบินและศิลปะป้องกันตัว , เอียน เดอ เคสเตคเกอร์ รับบทเป็นเจ้าหน้าที่ลีโอ ฟิทซ์ ผู้เชี่ยวชาญด้านวิศวกรรม อลิซาเบธ เฮนสไตรด์ รับบทเป็นเจ้าหน้าที่เจมมา ซิมมอนส์ อัจฉริยะด้านชีวภาพ และ โคลอี้ เบนเน็ต รับบทเป็นสไคย์ สมาชิกใหม่ของทีมที่เชี่ยวชาญด้านแฮ็คเกอร์ ซีรี่ส์ชุดนี้มีจอส วีดอน ร่วมอำนวยการสร้างด้วย


    Complete name Marvels.Agents.of.S.H.I.E.L.D.S06.1080pMarvels.Age nts.of.S.H.I.E.L.D.S06E01.1080p.mkv
    Format : Matroska
    Format version : Version 4 / Version 2
    File size : 2.48 GiB
    Duration : 42 min 20 s
    Overall bit rate mode : Constant
    Overall bit rate : 8 400 kb/s
    Encoded date : UTC 2019-06-28 11:46:26
    Writing application : mkvmerge v6.9.1 ('Blue Panther') 32bit built on Apr 18 2014 18:15:44
    Writing library : libebml v1.3.0 + libmatroska v1.4.1

    Video
    ID : 1
    Format : AVC
    Format/Info : Advanced Video Codec
    Format profile : [email protected]
    Format settings, CABAC : Yes
    Format settings, RefFrames : 4 frames
    Codec ID : V_MPEG4/ISO/AVC
    Duration : 42 min 20 s
    Bit rate mode : Constant
    Bit rate : 8 041 kb/s
    Nominal bit rate : 10 000 kb/s
    Width : 1 920 pixels
    Height : 1 080 pixels
    Display aspect ratio : 16:9
    Frame rate mode : Constant
    Frame rate : 23.976 (24000/1001) FPS
    Color space : YUV
    Chroma subsampling : 4:2:0
    Bit depth : 8 bits
    Scan type : Progressive
    Bits/(Pixel*Frame) : 0.162
    Stream size : 2.38 GiB (96%)
    Language : English
    Default : Yes
    Forced : No
    Color range : Limited
    Color primaries : BT.709
    Transfer characteristics : BT.709
    Matrix coefficients : BT.709

    Audio
    ID : 2
    Format : AC-3
    Format/Info : Audio Coding 3
    Format settings, Endianness : Big
    Codec ID : A_AC3
    Duration : 42 min 20 s
    Bit rate mode : Constant
    Bit rate : 192 kb/s
    Channel(s) : 2 channels
    Channel positions : Front: L R
    Sampling rate : 48.0 kHz
    Frame rate : 31.250 FPS (1536 SPF)
    Bit depth : 16 bits
    Compression mode : Lossy
    Stream size : 58.1 MiB (2%)
    Language : Thai
    Service kind : Complete Main
    Default : Yes
    Forced : No







    Download: filecondo
    1 http://www.filecondo.com/dl.php?f=X0e8931IPPsZ
    2 http://www.filecondo.com/dl.php?f=Qdea8f1IPPu8
    3 http://www.filecondo.com/dl.php?f=4d0fc71IPPwa
    4 http://www.filecondo.com/dl.php?f=0eb36d1IPPxZ
    5 http://www.filecondo.com/dl.php?f=t45f901IPPzU
    6 http://www.filecondo.com/dl.php?f=O40fda1IPPAN
    7 http://www.filecondo.com/dl.php?f=wa3ca61IPPBQ
    8 http://www.filecondo.com/dl.php?f=Bc0d4f1IPPCI
    9 http://www.filecondo.com/dl.php?f=J4f1ed1IPPDO
    10 http://www.filecondo.com/dl.php?f=Z6f8d11IPPFw
    11 http://www.filecondo.com/dl.php?f=p9644b1IPPGI
    12 http://www.filecondo.com/dl.php?f=Af49fa1IPPHD
    13 http://www.filecondo.com/dl.php?f=9edb3b1IPPIx

    Download: cornfile
    Marvels.Agents.of.S.H.I.E.L.D.S06E01.1080p.mkv - 2.5 GB
    Marvels.Agents.of.S.H.I.E.L.D.S06E02.1080p.mkv - 2.5 GB
    Marvels.Agents.of.S.H.I.E.L.D.S06E03.1080p.mkv - 2.7 GB
    Marvels.Agents.of.S.H.I.E.L.D.S06E04.1080p.mkv - 2.5 GB
    Marvels.Agents.of.S.H.I.E.L.D.S06E05.1080p.mkv - 2.6 GB
    Marvels.Agents.of.S.H.I.E.L.D.S06E06.1080p.mkv - 2.4 GB
    Marvels.Agents.of.S.H.I.E.L.D.S06E07.1080p.mkv - 2.6 GB
    Marvels.Agents.of.S.H.I.E.L.D.S06E08.1080p.mkv - 2.4 GB
    Marvels.Agents.of.S.H.I.E.L.D.S06E09.1080p.mkv - 2.6 GB
    Marvels.Agents.of.S.H.I.E.L.D.S06E10.1080p.mkv - 2.2 GB
    Marvels.Agents.of.S.H.I.E.L.D.S06E11.1080p.mkv - 3.0 GB
    Marvels.Agents.of.S.H.I.E.L.D.S06E12.1080p.mkv - 2.7 GB
    Marvels.Agents.of.S.H.I.E.L.D.S06E13.1080p.mkv - 2.7 GB

    Download: mekafile
    1 http://www.mekafile.com/dl.php?f=2A012cc3QPlh
    2 http://www.mekafile.com/dl.php?f=iF5e3ec3QP0Q
    3 http://www.mekafile.com/dl.php?f=dJad2cc3QOND
    4 http://www.mekafile.com/dl.php?f=nX6f97c3QOUb
    5 http://www.mekafile.com/dl.php?f=z60bc0c3QOsY
    6 http://www.mekafile.com/dl.php?f=qrebfdc3QP7C
    7 http://www.mekafile.com/dl.php?f=Rg65ecc3QOfx
    8 http://www.mekafile.com/dl.php?f=Atfe62c3QO1L
    9 http://www.mekafile.com/dl.php?f=4qd565c3QO8S
    10 http://www.mekafile.com/dl.php?f=rW4e1fc3QOm5
    11 http://www.mekafile.com/dl.php?f=67b1bcc3QOA5
    12 http://www.mekafile.com/dl.php?f=O06352c3QPeC
    13 http://www.mekafile.com/dl.php?f=g10647c3QOGK

  2. The Following 3 Users Say Thank You to Duckload.us For This Useful Post:

    aragon21 (01-13-2020), noi54 (01-11-2020), spiderpud2 (02-23-2020)

  3. #2
    Senior Member
    สมัครเมื่อ
    Jun 2014
    โพสต์
    4,331
    Thanks
    0
    Thanked 0 Times in 0 Posts
    ขอบคุณครับ

  4. #3
    Senior Member
    สมัครเมื่อ
    Jul 2012
    โพสต์
    6,972
    Thanks
    0
    Thanked 0 Times in 0 Posts
    ขอบคุณมากจ้า

+ ตอบกลับกระทู้

ข้อมูลกระทู้

Users Browsing this Thread

ในขณะนี้มี 1 ท่านดูกระทู้อยู่. (0 สมาชิกและ 1 ผู้เยี่ยมชม)

     

กฎการโพสต์ข้อความ

  • ท่าน ไม่สามารถ ตั้งกระทู้ใหม่ได้
  • ท่าน ไม่สามารถ ตอบกระทู้ได้
  • ท่าน ไม่สามารถ แนบไฟล์ได้
  • ท่าน ไม่สามารถ แก้ไขข้อความโพสต์ได้
  • BB code สถานะ เปิด
  • Smilies สถานะ เปิด
  • [IMG] สถานะ เปิด
  • HTML สถานะ ปิด