+ ตอบกลับกระทู้
สรุปผลการค้นหา 1 ถึง 2 จากทั้งหมด 2
  1. #1
    Administrators รูปส่วนตัว Duckload.us
    สมัครเมื่อ
    Dec 2010
    โพสต์
    116,849
    Thanks
    7
    Thanked 123,153 Times in 55,207 Posts

    Question [ฝรั่ง] *ใหม่* The Night Eats the World (2018) : วันซอมบี้เขมือบโลก [Eng 5.1 (ไม่มีพากษ์ไทย)+บรรยายไทย(แปล) PGS คมชัด]-Blu-ray.DTS.1080p. [Modified]-[Soundtrack บรรยายไทย (แปล)]



    Night Eats the World เป็นภาพยนตร์ผีดิบฝรั่งเศสปี 2018 กำกับโดย Dominique Rocher และเขียนโดยJé ré mie Guez

    ชายหนุ่มนักดนตรี แวะมาหาอดีตกิ๊กเพื่อมาเอาเดโมเทปเพลง และได้สนุกสนานกับปาร์ตี้จนเผลอหลับไป
    เมื่อตื่นขึ้นมาก็พบว่าทั้งกรุงปารีสเปลี่ยนไป เหลือเขาคนเพียงเดียวที่ต้องหาทางเอาชีวิตรอด
    และต้องพบว่าทั้งเมืองที่เขาอาศัยอยู่กลายเป็นซอมบี้ และเขาอาจเป็นผู้รอดชีวิตคนสุดท้าย...



    General
    Unique ID : 216396624251582388208477311935602553247 (0xA2CC794E4D4F48A78C5E26721A64F19F)
    Complete name : The.Night.Eats.the.World(2018)1080p.BluRay.SUBThai [email protected]
    Format : Matroska
    Format version : Version 4
    File size : 6.56 GiB
    Duration : 1 h 33 min
    Overall bit rate : 10.1 Mb/s
    Movie name : gua-nighteatsworld-1080p[EtHD][email protected]
    Encoded date : UTC 2020-01-11 15:26:50
    Writing application : mkvmerge v42.0.0 ('Overtime') 64-bit
    Writing library : libebml v1.3.10 + libmatroska v1.5.2

    Video
    ID : 1
    Format : AVC
    Format/Info : Advanced Video Codec
    Format profile : [email protected]
    Format settings : CABAC / 4 Ref Frames
    Format settings, CABAC : Yes
    Format settings, Reference frames : 4 frames
    Codec ID : V_MPEG4/ISO/AVC
    Duration : 1 h 33 min
    Bit rate : 8 541 kb/s
    Width : 1 920 pixels
    Height : 1 040 pixels
    Display aspect ratio : 1.85:1
    Frame rate mode : Constant
    Frame rate : 24.000 FPS
    Color space : YUV
    Chroma subsampling : 4:2:0
    Bit depth : 8 bits
    Scan type : Progressive
    Bits/(Pixel*Frame) : 0.178
    Stream size : 5.57 GiB (85%)
    Writing library : x264 core 155 r2901 7d0ff22
    Default : Yes
    Forced : No

    Audio
    ID : 2
    Format : DTS
    Format/Info : Digital Theater Systems
    Codec ID : A_DTS
    Duration : 1 h 33 min
    Bit rate mode : Constant
    Bit rate : 1 509 kb/s
    Channel(s) : 6 channels
    Channel layout : C L R Ls Rs LFE
    Sampling rate : 48.0 kHz
    Frame rate : 93.750 FPS (512 SPF)
    Bit depth : 24 bits
    Compression mode : Lossy
    Stream size : 1 008 MiB (15%)
    Title : DTS 5.1 1500kbps
    Language : English
    Default : Yes
    Forced : No

    Text #1
    ID : 3
    Format : VobSub
    Muxing mode : zlib
    Codec ID : S_VOBSUB
    Codec ID/Info : Picture based subtitle format used on DVDs
    Duration : 1 h 30 min
    Bit rate : 2 067 b/s
    Count of elements : 210
    Stream size : 1.33 MiB (0%)
    Title : Vob 1080p
    Language : Thai
    Default : Yes
    Forced : No

    Text #2
    ID : 4
    Format : VobSub
    Muxing mode : zlib
    Codec ID : S_VOBSUB
    Codec ID/Info : Picture based subtitle format used on DVDs
    Duration : 1 h 30 min
    Bit rate : 2 067 b/s
    Count of elements : 210
    Stream size : 1.33 MiB (0%)
    Title : Vob 1080p yellow
    Language : Thai
    Default : No
    Forced : No

    Text #3
    ID : 5
    Format : PGS
    Muxing mode : zlib
    Codec ID : S_HDMV/PGS
    Codec ID/Info : Picture based subtitle format used on BDs/HD-DVDs
    Duration : 1 h 30 min
    Bit rate : 9 516 b/s
    Count of elements : 420
    Stream size : 6.13 MiB (0%)
    Title : PGS 1080p
    Language : Thai
    Default : No
    Forced : No

    Text #4
    ID : 6
    Format : PGS
    Muxing mode : zlib
    Codec ID : S_HDMV/PGS
    Codec ID/Info : Picture based subtitle format used on BDs/HD-DVDs
    Duration : 1 h 30 min
    Bit rate : 9 516 b/s
    Count of elements : 420
    Stream size : 6.13 MiB (0%)
    Title : PGS 1080p yellow
    Language : Thai
    Default : No
    Forced : No

    Text #5
    ID : 7
    Format : UTF-8
    Codec ID : S_TEXT/UTF8
    Codec ID/Info : UTF-8 Plain Text
    Duration : 1 h 30 min
    Bit rate : 24 b/s
    Count of elements : 210
    Stream size : 16.1 KiB (0%)
    Title : Thai SRT
    Language : Thai
    Default : No
    Forced : No

    Text #6
    ID : 8
    Format : UTF-8
    Codec ID : S_TEXT/UTF8
    Codec ID/Info : UTF-8 Plain Text
    Duration : 1 h 29 min
    Bit rate : 10 b/s
    Count of elements : 233
    Stream size : 6.71 KiB (0%)
    Title : English SRT
    Language : English
    Default : No
    Forced : No





    Download: cornfile
    http://cornfile.com/mda92e7yyadg
    Download: mekafile
    http://www.mekafile.com/dl.php?f=AQa120c3VTZB

  2. The Following 2 Users Say Thank You to Duckload.us For This Useful Post:

    bigbang06 (01-12-2020), jangska (03-05-2020)

  3. #2
    Senior Member
    สมัครเมื่อ
    Jun 2014
    โพสต์
    4,331
    Thanks
    0
    Thanked 0 Times in 0 Posts
    ขอบคุณครับ

+ ตอบกลับกระทู้

ข้อมูลกระทู้

Users Browsing this Thread

ในขณะนี้มี 1 ท่านดูกระทู้อยู่. (0 สมาชิกและ 1 ผู้เยี่ยมชม)

     

กฎการโพสต์ข้อความ

  • ท่าน ไม่สามารถ ตั้งกระทู้ใหม่ได้
  • ท่าน ไม่สามารถ ตอบกระทู้ได้
  • ท่าน ไม่สามารถ แนบไฟล์ได้
  • ท่าน ไม่สามารถ แก้ไขข้อความโพสต์ได้
  • BB code สถานะ เปิด
  • Smilies สถานะ เปิด
  • [IMG] สถานะ เปิด
  • HTML สถานะ ปิด