+ ตอบกลับกระทู้
สรุปผลการค้นหา 1 ถึง 4 จากทั้งหมด 4
  1. #1
    Administrators รูปส่วนตัว Duckload.us
    สมัครเมื่อ
    Dec 2010
    โพสต์
    111,064
    Thanks
    7
    Thanked 116,399 Times in 53,059 Posts

    Question (ฝรั่ง.ภาพ HQ.SUB:ENG.ไทยโรง)-TERMINATOR 6 DARK FATE (2019) คนเหล็ก 6 วิกฤตชะตาโลก-[WEBRip.1080p.X264 ][ Sound Eng AC3 5.1:Thai Rong AC3 2.0][ SUB:Eng.PGS]




    เพราะเห็นว่า "จักรวาลของหุ่นยนต์ ไม่ได้มีเพียงหนึ่ง" "เจมส์ แคเมรอน" จึงสานต่อ หนังคนเหล็กภาคใหม่ให้สนุกมันและสมจริงกว่าเก่า พร้อมนำนักแสดงใหม่เข้ามามีบทบาทมากขึ้น ไม่ว่าจะเป็นตัวเอกใหม่ "แดนี่ ราโมส "(รับบทดโดย นาตาเลีย เรย์ส) , "เกรซ" มนุษย์ดัดแปรงไซบอร์ก รับบทโดย "แม็คเคนซี เดวิส" ซึ่งทั้งสองสาวต้องหลบหนีการไล่ล่าของ หุ่น REV-9 (รับบทโดย กาเบรียล ลูน่า) ที่มีการพัฒนาถึงขั้นแยกร่างต่อสู้ได้ 2 ร่าง แล้วใครจะเป็นผู้รอดชีวิตในตอนสุดท้าย

    Format : Matroska
    Format version : Version 4
    File size : 3.61 GiB
    Duration : 2 h 8 min
    Overall bit rate : 4 040 kb/s
    Movie name : Terminator.Dark.Fate.2019.1080p.WEBRip.DD5.1.x264_ ©GOLD CUP™

    Video
    ID : 1
    Format : AVC
    Format/Info : Advanced Video Codec
    Format profile : [email protected]
    Format settings : CABAC / 1 Ref Frames
    Format settings, CABAC : Yes
    Format settings, Reference : 1 frame
    Format settings, GOP : M=1, N=25
    Codec ID : V_MPEG4/ISO/AVC
    Duration : 2 h 8 min
    Bit rate mode : Constant
    Bit rate : 3 000 kb/s
    Width : 1 920 pixels
    Height : 800 pixels
    Display aspect ratio : 2.40:1
    Frame rate mode : Constant
    Frame rate : 29.970 (30000/1001) FPS
    Color space : YUV
    Chroma subsampling : 4:2:0
    Bit depth : 8 bits
    Scan type : Progressive
    Bits/(Pixel*Frame) : 0.065
    Stream size : 2.68 GiB (74%)
    Title : Terminator.Dark.Fate.2019.1080p.WEBRip.DD5.1.x264_ ©GOLD CUP™
    Language : English
    Default : Yes
    Forced : No

    Audio #1
    ID : 2
    Format : AC-3
    Format/Info : Audio Coding 3
    Commercial name : Dolby Digital
    Codec ID : A_AC3
    Duration : 2 h 8 min
    Bit rate mode : Constant
    Bit rate : 640 kb/s
    Channel(s) : 2 channels
    Channel layout : L R
    Sampling rate : 44.1 kHz
    Frame rate : 28.711 FPS (1536 SPF)
    Compression mode : Lossy
    Stream size : 586 MiB (16%)
    Title : 2.0 AC3 THR 640k 586m_©GOLD CUP™
    Language : Thai
    Service kind : Complete Main
    Default : Yes
    Forced : No

    Audio #2
    ID : 3
    Format : AC-3
    Format/Info : Audio Coding 3
    Commercial name : Dolby Digital
    Codec ID : A_AC3
    Duration : 2 h 8 min
    Bit rate mode : Constant
    Bit rate : 384 kb/s
    Channel(s) : 6 channels
    Channel layout : L R C LFE Ls Rs
    Sampling rate : 48.0 kHz
    Frame rate : 31.250 FPS (1536 SPF)
    Compression mode : Lossy
    Stream size : 352 MiB (10%)
    Title : 5.1 AC3 EN 384k 352m_©GOLD CUP™
    Language : English
    Service kind : Complete Main
    Default : No
    Forced : No

    Text #1
    ID : 4
    Format : PGS
    Muxing mode : zlib
    Codec ID : S_HDMV/PGS
    Codec ID/Info : Picture based subtitle format used on BDs/HD-DVDs
    Duration : 1 h 58 min
    Bit rate : 12.9 kb/s
    Count of elements : 2246
    Stream size : 10.9 MiB (0%)
    Title : EN.PGS.white.80-55-10_©GOLD CUP™
    Language : English
    Default : Yes
    Forced : No

    Text #2
    ID : 5
    Format : PGS
    Muxing mode : zlib
    Codec ID : S_HDMV/PGS
    Codec ID/Info : Picture based subtitle format used on BDs/HD-DVDs
    Duration : 1 h 58 min
    Bit rate : 17.6 kb/s
    Count of elements : 2864
    Stream size : 14.9 MiB (0%)
    Title : EN.SDH.PGS.yellow.80-55-10_©GOLD CUP™
    Language : English
    Default : No
    Forced : No





    Download: cornfile
    http://cornfile.com/6d4qtytcwk66
    Download: mekafile
    http://www.mekafile.com/dl.php?f=sSc722c43BBi

  2. The Following 5 Users Say Thank You to Duckload.us For This Useful Post:

    amorn wichian (01-15-2020), NaiWan (01-17-2020), Tellmon (01-17-2020), thesuperpop (01-17-2020), Wesker_TOT (01-16-2020)

  3. #2
    Senior Member
    สมัครเมื่อ
    Jun 2014
    โพสต์
    2,511
    Thanks
    0
    Thanked 0 Times in 0 Posts
    ขอบคุณครับ

  4. #3
    Senior Member
    สมัครเมื่อ
    Jul 2014
    โพสต์
    185
    Thanks
    5
    Thanked 0 Times in 0 Posts
    ขอบคุณมากครับ

  5. #4
    Senior Member
    สมัครเมื่อ
    Oct 2013
    โพสต์
    1,643
    Thanks
    0
    Thanked 0 Times in 0 Posts
    ขอบคุณครับ

+ ตอบกลับกระทู้

ข้อมูลกระทู้

Users Browsing this Thread

ในขณะนี้มี 1 ท่านดูกระทู้อยู่. (0 สมาชิกและ 1 ผู้เยี่ยมชม)

     

กฎการโพสต์ข้อความ

  • ท่าน ไม่สามารถ ตั้งกระทู้ใหม่ได้
  • ท่าน ไม่สามารถ ตอบกระทู้ได้
  • ท่าน ไม่สามารถ แนบไฟล์ได้
  • ท่าน ไม่สามารถ แก้ไขข้อความโพสต์ได้
  • BB code สถานะ เปิด
  • Smilies สถานะ เปิด
  • [IMG] สถานะ เปิด
  • HTML สถานะ ปิด