+ ตอบกลับกระทู้
สรุปผลการค้นหา 1 ถึง 3 จากทั้งหมด 3
  1. #1
    Administrators รูปส่วนตัว Duckload.us
    สมัครเมื่อ
    Dec 2010
    โพสต์
    118,529
    Thanks
    7
    Thanked 124,598 Times in 55,776 Posts

    Question [ฝรั่ง]-[New-Master] Inside.Man.Most.Wanted [2019] ปล้นข้ามโลก-Encode.H.264.1080p. [Modified]-[Sound:Eng DTS 5.1/Tha AC3 2.0] [SUB: อังกฤษ / ไทย]



    หลังจากการปะทะกันกับ FBI บ่อยครั้ง Remy Darbonne ในที่สุดก็พบกับการแข่งขันของเขาในเกมต่อสู้
    ผู้บงการอาชญากรที่ขู่จะเริ่มดำเนินการปล้นครั้งใหญ่ ที่สุดในประวัติศาสตร์ต่อต้าน Federal Reserve
    ในเรื่องของการล้างแค้นหลอกลวงและความรุนแรงมันขึ้นอ ยู่กับผู้เจรจาต่อรอง NYPD เพื่อหาจุดร่วมกับผู้บังคับใช้กฎหมายของเขาและขัดขวา งการกระทำที่ผิดกฎหมายของผู้ที่ขู่จะทำให้รัฐบาลไม่ม ั่นคง
    อาวุธที่มีความรู้และยุทธวิธีมากมาย Darbonne ก้าวไปไกลเพื่อให้แน่ใจว่าได้รับความยุติธรรม

    Format : Matroska
    Format version : Version 4
    File size : 6.98 GiB
    Duration : 1 h 45 min
    Overall bit rate : 9 449 kb/s
    Movie name : {MINI Super-HQ}_Inside.Man.Most.Wanted.2019.1080p.BrRip.DTS.x2 [email protected]
    Encoded date : UTC 2020-01-16 13:28:11
    Writing application : mkvmerge v41.0.0 ('Smarra') 64-bit
    Writing library : libebml v1.3.9 + libmatroska v1.5.2
    Cover : Yes
    Attachments : cover.jpg

    Video #1
    ID : 1
    Format : AVC
    Format/Info : Advanced Video Codec
    Format profile : [email protected]
    Format settings : CABAC / 4 Ref Frames
    Format settings, CABAC : Yes
    Format settings, Reference frames : 4 frames
    Codec ID : V_MPEG4/ISO/AVC
    Duration : 1 h 45 min
    Bit rate : 4 344 kb/s
    Width : 1 920 pixels
    Height : 960 pixels
    Display aspect ratio : 2.000
    Frame rate mode : Constant
    Frame rate : 23.976 (24000/1001) FPS
    Color space : YUV
    Chroma subsampling : 4:2:0
    Bit depth : 8 bits
    Scan type : Progressive
    Bits/(Pixel*Frame) : 0.098
    Stream size : 3.21 GiB (46%)
    Title : {MINI Super-HQ}_Inside.Man.Most.Wanted.2019.1080p.BrRip.DTS.x2 [email protected]
    Writing library : x264 core 157 r2935 545de2f
    Encoding settings : cabac=1 / ref=3 / deblock=1:0:0 / analyse=0x3:0x133 / me=umh / subme=11 / psy=1 / psy_rd=1.00:0.00 / mixed_ref=1 / me_range=48 / chroma_me=1 / trellis=2 / 8x8dct=1 / cqm=0 / deadzone=21,11 / fast_pskip=1 / chroma_qp_offset=-2 / threads=10 / lookahead_threads=1 / sliced_threads=0 / nr=0 / decimate=1 / interlaced=0 / bluray_compat=0 / constrained_intra=0 / bframes=3 / b_pyramid=2 / b_adapt=1 / b_bias=0 / direct=3 / weightb=1 / open_gop=0 / weightp=2 / keyint=240 / keyint_min=24 / scenecut=40 / intra_refresh=0 / rc_lookahead=60 / rc=2pass / mbtree=1 / bitrate=4344 / ratetol=1.0 / qcomp=0.60 / qpmin=0 / qpmax=69 / qpstep=4 / cplxblur=20.0 / qblur=0.5 / vbv_maxrate=25000 / vbv_bufsize=31250 / nal_hrd=none / filler=0 / ip_ratio=1.40 / aq=1:1.00
    Language : English
    Default : Yes
    Forced : No
    Color range : Limited
    Color primaries : BT.709
    Transfer characteristics : BT.709
    Matrix coefficients : BT.709

    Video #2
    ID : 4
    Format : AVC
    Format/Info : Advanced Video Codec
    Format profile : [email protected]
    Format settings : CABAC / 1 Ref Frames
    Format settings, CABAC : Yes
    Format settings, Reference frames : 1 frame
    Format settings, GOP : M=1, N=25
    Codec ID : V_MPEG4/ISO/AVC
    Duration : 1 h 45 min
    Bit rate mode : Constant
    Bit rate : 4 000 kb/s
    Width : 1 920 pixels
    Height : 960 pixels
    Display aspect ratio : 2.000
    Frame rate mode : Constant
    Frame rate : 29.970 (30000/1001) FPS
    Color space : YUV
    Chroma subsampling : 4:2:0
    Bit depth : 8 bits
    Scan type : Progressive
    Bits/(Pixel*Frame) : 0.072
    Stream size : 2.95 GiB (42%)
    Title : Inside.Man.Most.Wanted.2019.1080p.BluRay.x264.HD.M A.5.1_©GOLD CUP™
    Language : English
    Default : No
    Forced : No

    Audio #1
    ID : 2
    Format : DTS
    Format/Info : Digital Theater Systems
    Codec ID : A_DTS
    Duration : 1 h 45 min
    Bit rate mode : Constant
    Bit rate : 755 kb/s
    Channel(s) : 6 channels
    Channel layout : C L R Ls Rs LFE
    Sampling rate : 48.0 kHz
    Frame rate : 93.750 FPS (512 SPF)
    Bit depth : 24 bits
    Compression mode : Lossy
    Stream size : 571 MiB (8%)
    Title : English DTS
    Language : English
    Default : Yes
    Forced : No

    Audio #2
    ID : 5
    Format : AC-3
    Format/Info : Audio Coding 3
    Commercial name : Dolby Digital
    Codec ID : A_AC3
    Duration : 1 h 45 min
    Bit rate mode : Constant
    Bit rate : 320 kb/s
    Channel(s) : 2 channels
    Channel layout : L R
    Sampling rate : 44.1 kHz
    Frame rate : 28.711 FPS (1536 SPF)
    Bit depth : 16 bits
    Compression mode : Lossy
    Stream size : 242 MiB (3%)
    Title : 2.0 AC3 TH 320k 242m_©GOLD CUP™
    Language : Thai
    Service kind : Complete Main
    Default : No
    Forced : No

    Text #1
    ID : 3
    Format : PGS
    Muxing mode : zlib
    Codec ID : S_HDMV/PGS
    Codec ID/Info : Picture based subtitle format used on BDs/HD-DVDs
    Duration : 1 h 41 min
    Bit rate : 45.0 kb/s
    Count of elements : 3190
    Stream size : 32.8 MiB (0%)
    Title : English
    Language : English
    Default : No
    Forced : No

    Text #2
    ID : 6
    Format : PGS
    Muxing mode : zlib
    Codec ID : S_HDMV/PGS
    Codec ID/Info : Picture based subtitle format used on BDs/HD-DVDs
    Duration : 1 h 45 min
    Bit rate : 27.7 kb/s
    Count of elements : 2922
    Stream size : 20.9 MiB (0%)
    Title : TH.PGS.white.80-70-10_©GOLD CUP™
    Language : Thai
    Default : Yes
    Forced : No

    Text #3
    ID : 7
    Format : VobSub
    Muxing mode : zlib
    Codec ID : S_VOBSUB
    Codec ID/Info : Picture based subtitle format used on DVDs
    Duration : 1 h 44 min
    Bit rate : 7 885 b/s
    Count of elements : 1459
    Stream size : 5.91 MiB (0%)
    Title : Vob.Thai 1080p BIG[length348]
    Language : Thai
    Default : No
    Forced : No

    Menu
    00:00:00.000 : en:绗?01 绔?
    00:07:20.190 : en:绗?02 绔?
    00:12:18.947 : en:绗?03 绔?
    00:18:31.319 : en:绗?04 绔?
    00:24:28.342 : en:绗?05 绔?
    00:30:21.403 : en:绗?06 绔?
    00:34:20.475 : en:绗?07 绔?
    00:40:11.576 : en:绗?08 绔?
    00:45:36.150 : en:绗?09 绔?
    00:50:35.199 : en:绗?10 绔?
    00:54:39.401 : en:绗?11 绔?
    00:58:05.982 : en:绗?12 绔?
    01:01:56.546 : en:绗?13 绔?
    01:06:57.555 : en:绗?14 绔?
    01:13:02.169 : en:绗?15 绔?
    01:15:33.696 : en:绗?16 绔?
    01:21:11.533 : en:绗?17 绔?
    01:27:34.374 : en:绗?18 绔?
    01:33:13.004 : en:绗?19 绔?
    01:40:59.845 : en:绗?20 绔?





    Download: cornfile
    http://cornfile.com/3ilx0fnme2j4
    Download: mekafile
    http://www.filecondo.com/dl.php?f=4w33a8c48rIL

  2. The Following 4 Users Say Thank You to Duckload.us For This Useful Post:

    apichartdear (01-18-2020), jangska (03-05-2020), noi54 (01-18-2020), Tellmon (01-19-2020)

  3. #2
    Senior Member
    สมัครเมื่อ
    Oct 2013
    โพสต์
    1,756
    Thanks
    0
    Thanked 0 Times in 0 Posts
    ขอบคุณครับ

  4. #3
    Senior Member
    สมัครเมื่อ
    Jun 2014
    โพสต์
    4,621
    Thanks
    0
    Thanked 0 Times in 0 Posts
    ขอบคุณครับ

+ ตอบกลับกระทู้

ข้อมูลกระทู้

Users Browsing this Thread

ในขณะนี้มี 1 ท่านดูกระทู้อยู่. (0 สมาชิกและ 1 ผู้เยี่ยมชม)

     

กฎการโพสต์ข้อความ

  • ท่าน ไม่สามารถ ตั้งกระทู้ใหม่ได้
  • ท่าน ไม่สามารถ ตอบกระทู้ได้
  • ท่าน ไม่สามารถ แนบไฟล์ได้
  • ท่าน ไม่สามารถ แก้ไขข้อความโพสต์ได้
  • BB code สถานะ เปิด
  • Smilies สถานะ เปิด
  • [IMG] สถานะ เปิด
  • HTML สถานะ ปิด