+ ตอบกลับกระทู้
สรุปผลการค้นหา 1 ถึง 3 จากทั้งหมด 3
  1. #1
    Administrators รูปส่วนตัว Duckload.us
    สมัครเมื่อ
    Dec 2010
    โพสต์
    111,066
    Thanks
    7
    Thanked 116,403 Times in 53,059 Posts

    Question (ญี่ปุ่น.ใหม่.ไทยมาสเตอร์)-BRAVE FATHER ONLINE OUR STORY OF FINAL FANTASY XIV (2019) คุณพ่อนักรบแห่งแสง [BluRay.1080p][Sound:Eng/Tha AC3 2.0][SUB:Eng.PGS]




    เรื่องของอินาบะ ฮิโระทาโร่ (โคทาโร่ โยชิดะ) ชายวัย 60 ปีที่จู่ ๆ ก็ลาออกจากงาน ทำให้อาคิโอะ (เคนทาโร่ ซาคากุจิ) ผู้เป็นลูกชายรู้สึกเป็นห่วงเลยแนะนำให้พ่อของเขาเล่ นเกม FINAL FANTASY XIV โดยที่อาคิโอะช่วยพ่อของเขาเล่นเกมแบบลับ ๆ !!!

    Format : Matroska
    Format version : Version 4
    File size : 3.57 GiB
    Duration : 1 h 54 min
    Overall bit rate : 4 454 kb/s
    Movie name : Brave.Father.Online.Our.Story.Of.Final.Fantasy.XIV .2019.1080p.BluRay.H264_©GOLD CUP™
    Encoded date : UTC 2020-01-16 18:17:53
    Writing application : mkvmerge v42.0.0 ('Overtime') 64-bit
    Writing library : libebml v1.3.10 + libmatroska v1.5.2
    Cover : Yes
    Attachments : cover.jpg

    Video
    ID : 1
    Format : AVC
    Format/Info : Advanced Video Codec
    Format profile : [email protected]
    Format settings : CABAC / 1 Ref Frames
    Format settings, CABAC : Yes
    Format settings, Reference frames : 1 frame
    Format settings, GOP : M=1, N=25
    Codec ID : V_MPEG4/ISO/AVC
    Duration : 1 h 54 min
    Bit rate mode : Constant
    Bit rate : 3 500 kb/s
    Width : 1 920 pixels
    Height : 1 040 pixels
    Display aspect ratio : 1.85:1
    Frame rate mode : Constant
    Frame rate : 29.970 (30000/1001) FPS
    Color space : YUV
    Chroma subsampling : 4:2:0
    Bit depth : 8 bits
    Scan type : Progressive
    Bits/(Pixel*Frame) : 0.058
    Stream size : 2.80 GiB (78%)
    Title : Brave.Father.Online.Our.Story.Of.Final.Fantasy.XIV .2019.1080p.BluRay.H264_©GOLD CUP™
    Language : Japanese
    Default : Yes
    Forced : No

    Audio #1
    ID : 2
    Format : AC-3
    Format/Info : Audio Coding 3
    Commercial name : Dolby Digital
    Codec ID : A_AC3
    Duration : 1 h 54 min
    Bit rate mode : Constant
    Bit rate : 320 kb/s
    Channel(s) : 2 channels
    Channel layout : L R
    Sampling rate : 44.1 kHz
    Frame rate : 28.711 FPS (1536 SPF)
    Bit depth : 16 bits
    Compression mode : Lossy
    Stream size : 262 MiB (7%)
    Title : 2.0 AC3 TH 320k 262m_©GOLD CUP™
    Language : Thai
    Service kind : Complete Main
    Default : Yes
    Forced : No

    Audio #2
    ID : 3
    Format : AC-3
    Format/Info : Audio Coding 3
    Commercial name : Dolby Digital
    Codec ID : A_AC3
    Duration : 1 h 54 min
    Bit rate mode : Constant
    Bit rate : 640 kb/s
    Channel(s) : 2 channels
    Channel layout : L R
    Sampling rate : 44.1 kHz
    Frame rate : 28.711 FPS (1536 SPF)
    Bit depth : 16 bits
    Compression mode : Lossy
    Stream size : 524 MiB (14%)
    Title : 2.0 AC3 Jpn 640k 524m_©GOLD CUP™
    Language : Japanese
    Service kind : Complete Main
    Default : No
    Forced : No

    Text
    ID : 4
    Format : PGS
    Muxing mode : zlib
    Codec ID : S_HDMV/PGS
    Codec ID/Info : Picture based subtitle format used on BDs/HD-DVDs
    Duration : 1 h 54 min
    Bit rate : 14.9 kb/s
    Count of elements : 2446
    Stream size : 12.2 MiB (0%)
    Title : EN.PGS.white.85-60-10_©GOLD CUP™
    Language : English
    Default : Yes
    Forced : No





    Download: cornfile
    http://cornfile.com/2twu75t7hd3g
    Download: mekafile
    http://www.mekafile.com/dl.php?f=L84f45c48rTn

  2. #2
    Senior Member
    สมัครเมื่อ
    Dec 2013
    โพสต์
    1,974
    Thanks
    3,895
    Thanked 0 Times in 0 Posts
    ขอบคุณครับ...

  3. #3
    Senior Member
    สมัครเมื่อ
    Oct 2013
    โพสต์
    1,643
    Thanks
    0
    Thanked 0 Times in 0 Posts
    ขอบคุณครับ

+ ตอบกลับกระทู้

ข้อมูลกระทู้

Users Browsing this Thread

ในขณะนี้มี 1 ท่านดูกระทู้อยู่. (0 สมาชิกและ 1 ผู้เยี่ยมชม)

     

กฎการโพสต์ข้อความ

  • ท่าน ไม่สามารถ ตั้งกระทู้ใหม่ได้
  • ท่าน ไม่สามารถ ตอบกระทู้ได้
  • ท่าน ไม่สามารถ แนบไฟล์ได้
  • ท่าน ไม่สามารถ แก้ไขข้อความโพสต์ได้
  • BB code สถานะ เปิด
  • Smilies สถานะ เปิด
  • [IMG] สถานะ เปิด
  • HTML สถานะ ปิด