+ ตอบกลับกระทู้
สรุปผลการค้นหา 1 ถึง 2 จากทั้งหมด 2
  1. #1
    Administrators รูปส่วนตัว Duckload.us
    สมัครเมื่อ
    Dec 2010
    โพสต์
    111,204
    Thanks
    7
    Thanked 116,637 Times in 53,118 Posts

    Question (เกาหลี.ใหม่.ไทยมาสเตอร์)-THE BEAST (2019) ปิดโซลล่า-[1080p][Sound:Kor/Tha AAC 2.0:Master][ HARD SUB:Thai]



    ในโซลเกิดคดีฆาตกรรมต่อเนื่อง สุดโหดที่ยังไม่สามารถจับฆาตกรมาลงโทษได้ เหยื่อฆาตกรรม ทุกคนล้วนแต่มีอาชีพ ที่ต้องยุ่งเกี่ยวกับตำรวจนักสืบฮันซูได้รับมอบมายให ้เข้าร่วมในชุดสืบสวนของคดีนี้ โดยมีคู่แข่งอย่าง มินเต ที่ตั้งทีมสืบสวนขึ้นมาอีกชุด เพื่อตามล่าฆาตกรตัวจริง ให้ได้ และยิ่งสืบเข้าใกล้ตัวคนร้ายมากเท่าไหร่ กลับมีเหยื่อฆาตกรรม สังเวยชีวิต มากยิ่งกว่าเดิม ใครกันแน่ คือสัตว์ร้าย ฆาตกร ตัวจริง ?!!!

    Format : Matroska
    Format version : Version 4
    File size : 3.15 GiB
    Duration : 2 h 5 min
    Overall bit rate : 3 591 kb/s
    Movie name : The Beast (2019)1080p_©GOLD CUP™

    Video
    ID : 1
    Format : AVC
    Format/Info : Advanced Video Codec
    Format profile : [email protected]
    Format settings : CABAC / 1 Ref Frames
    Format settings, CABAC : Yes
    Format settings, Reference : 1 frame
    Format settings, GOP : M=1, N=25
    Codec ID : V_MPEG4/ISO/AVC
    Duration : 2 h 5 min
    Bit rate mode : Constant
    Bit rate : 3 300 kb/s
    Width : 1 920 pixels
    Height : 816 pixels
    Display aspect ratio : 2.35:1
    Frame rate mode : Constant
    Frame rate : 29.970 (30000/1001) FPS
    Color space : YUV
    Chroma subsampling : 4:2:0
    Bit depth : 8 bits
    Scan type : Progressive
    Bits/(Pixel*Frame) : 0.070
    Stream size : 2.89 GiB (92%)
    Title : The Beast (2019)1080p_©GOLD CUP™
    Language : Korean
    Default : Yes
    Forced : No

    Audio #1
    ID : 2
    Format : AAC LC
    Format/Info : Advanced Audio Codec Low Complexity
    Codec ID : A_AAC-2
    Duration : 2 h 5 min
    Bit rate : 96.0 kb/s
    Channel(s) : 2 channels
    Channel layout : L R
    Sampling rate : 48.0 kHz
    Frame rate : 46.875 FPS (1024 SPF)
    Compression mode : Lossy
    Stream size : 86.3 MiB (3%)
    Title : 2.0 AAC TH_©GOLD CUP™
    Language : Thai
    Default : Yes
    Forced : No

    Audio #2
    ID : 3
    Format : AAC LC
    Format/Info : Advanced Audio Codec Low Complexity
    Codec ID : A_AAC-2
    Duration : 2 h 5 min
    Bit rate : 192 kb/s
    Channel(s) : 2 channels
    Channel layout : L R
    Sampling rate : 44.1 kHz
    Frame rate : 43.066 FPS (1024 SPF)
    Compression mode : Lossy
    Stream size : 175 MiB (5%)
    Title : 2.0 AAC Kor_©GOLD CUP™
    Language : Korean
    Default : No
    Forced : No






    Download: cornfile
    http://cornfile.com/3xama9yywip1
    Download: mekafile
    http://www.mekafile.com/dl.php?f=Xtc0f3c4aFbW

  2. The Following User Says Thank You to Duckload.us For This Useful Post:

    apichartdear (01-18-2020)

  3. #2
    Senior Member
    สมัครเมื่อ
    Jun 2014
    โพสต์
    2,579
    Thanks
    0
    Thanked 0 Times in 0 Posts
    ขอบคุณครับ

+ ตอบกลับกระทู้

ข้อมูลกระทู้

Users Browsing this Thread

ในขณะนี้มี 1 ท่านดูกระทู้อยู่. (0 สมาชิกและ 1 ผู้เยี่ยมชม)

     

กฎการโพสต์ข้อความ

  • ท่าน ไม่สามารถ ตั้งกระทู้ใหม่ได้
  • ท่าน ไม่สามารถ ตอบกระทู้ได้
  • ท่าน ไม่สามารถ แนบไฟล์ได้
  • ท่าน ไม่สามารถ แก้ไขข้อความโพสต์ได้
  • BB code สถานะ เปิด
  • Smilies สถานะ เปิด
  • [IMG] สถานะ เปิด
  • HTML สถานะ ปิด