+ ตอบกลับกระทู้
สรุปผลการค้นหา 1 ถึง 2 จากทั้งหมด 2
  1. #1
    Administrators รูปส่วนตัว Duckload.us
    สมัครเมื่อ
    Dec 2010
    โพสต์
    111,082
    Thanks
    7
    Thanked 116,413 Times in 53,060 Posts

    Question [ฝรั่ง]-(.10Bit.HDR.HEVC)**Abominable (2019) เอเวอเรสต์ มนุษย์หิมะเพื่อนรัก**[เสียงอังกฤษTrueHD.Atmos.7.1+เสียงไทยมาสเตอร์ : บรรยายไทยPGSคมชัด+อื่นๆ]-Encode.H.265.2160p. [Modified]-[พากย์ไทย บรรยายไทย]



    ยี สาววัยรุ่น บังเอิญพบเยติบนหลังคาอพาร์ทเมนต์ของเธอในเซี่ยงไฮ้ เธอและเพื่อนๆ จอมกวน ทั้ง จิน และ เป็ง ตั้งชื่อว่า “เอเวอร์เรสต์” และออกผจญภัยเพื่อพาเยติกลับไปพบกับครอบครัวที่จุดสู งสุดของโลก ทั้ง 3 คนต้องเผชิญหน้ากับ เบอร์นิช เศรษฐีที่ตั้งใจจะจับตัวเยติ และนักสัตววิทยา ดร.ซาร่า เพื่อช่วยเอเวอร์เรสต์กลับบ้าน ...

    Code:
    Format                                   : Matroska
    Format version                           : Version 4
    File size                                : 14.5 GiB
    Duration                                 : 1 h 37 min
    Overall bit rate mode                    : Variable
    Overall bit rate                         : 21.4 Mb/s
    Movie name                               : Abominable 4K
    Encoded date                             : UTC 2020-01-16 10:42:35
    Writing application                      : mkvmerge v20.0.0 ('I Am The Sun') 64-bit
    Writing library                          : libebml v1.3.5 + libmatroska v1.4.8
    
    Video
    ID                                       : 1
    Format                                   : HEVC
    Format/Info                              : High Efficiency Video Coding
    Format profile                           : Main [email protected]@High
    HDR format                               : SMPTE ST 2086, HDR10 compatible
    Codec ID                                 : V_MPEGH/ISO/HEVC
    Duration                                 : 1 h 37 min
    Bit rate                                 : 15.9 Mb/s
    Width                                    : 3 840 pixels
    Height                                   : 2 072 pixels
    Display aspect ratio                     : 1.85:1
    Frame rate mode                          : Constant
    Frame rate                               : 23.976 (24000/1001) FPS
    Color space                              : YUV
    Chroma subsampling                       : 4:2:0
    Bit depth                                : 10 bits
    Bits/(Pixel*Frame)                       : 0.083
    Stream size                              : 10.8 GiB (74%)
    Language                                 : English
    Default                                  : Yes
    Forced                                   : No
    Color range                              : Limited
    Color primaries                          : BT.2020
    Transfer characteristics                 : PQ
    Matrix coefficients                      : BT.2020 non-constant
    Mastering display color primaries        : Display P3
    Mastering display luminance              : min: 0.0050 cd/m2, max: 1000 cd/m2
    Maximum Content Light Level              : 1003 cd/m2
    Maximum Frame-Average Light Level        : 145 cd/m2
    
    Audio #1
    ID                                       : 2
    Format                                   : MLP FBA 16-ch
    Format/Info                              : Meridian Lossless Packing FBA with 16-channel presentation
    Commercial name                          : Dolby TrueHD with Dolby Atmos
    Codec ID                                 : A_TRUEHD
    Duration                                 : 1 h 37 min
    Bit rate mode                            : Variable
    Bit rate                                 : 4 374 kb/s
    Maximum bit rate                         : 7 389 kb/s
    Channel(s)                               : 8 channels
    Channel layout                           : L R C LFE Ls Rs Lb Rb
    Sampling rate                            : 48.0 kHz
    Frame rate                               : 1 200.000 FPS (40 SPF)
    Compression mode                         : Lossless
    Stream size                              : 2.97 GiB (20%)
    Title                                    : TrueHD Atmos 7.1
    Language                                 : English
    Default                                  : Yes
    Forced                                   : No
    Number of dynamic objects                : 11
    Bed channel count                        : 1 channel
    Bed channel configuration                : LFE
    
    Audio #2
    ID                                       : 3
    Format                                   : AC-3
    Format/Info                              : Audio Coding 3
    Commercial name                          : Dolby Digital
    Codec ID                                 : A_AC3
    Duration                                 : 1 h 37 min
    Bit rate mode                            : Constant
    Bit rate                                 : 384 kb/s
    Channel(s)                               : 2 channels
    Channel layout                           : L R
    Sampling rate                            : 48.0 kHz
    Frame rate                               : 31.250 FPS (1536 SPF)
    Bit depth                                : 16 bits
    Compression mode                         : Lossy
    Delay relative to video                  : 500 ms
    Stream size                              : 267 MiB (2%)
    Title                                    : AC3 5.1
    Language                                 : Thai
    Service kind                             : Complete Main
    Default                                  : No
    Forced                                   : No
    
    Audio #3
    ID                                       : 4
    Format                                   : AC-3
    Format/Info                              : Audio Coding 3
    Commercial name                          : Dolby Digital
    Codec ID                                 : A_AC3
    Duration                                 : 1 h 37 min
    Bit rate mode                            : Constant
    Bit rate                                 : 448 kb/s
    Channel(s)                               : 6 channels
    Channel layout                           : L R C LFE Ls Rs
    Sampling rate                            : 48.0 kHz
    Frame rate                               : 31.250 FPS (1536 SPF)
    Bit depth                                : 16 bits
    Compression mode                         : Lossy
    Stream size                              : 312 MiB (2%)
    Title                                    : AC3 5.1
    Language                                 : English
    Service kind                             : Complete Main
    Default                                  : No
    Forced                                   : No
    
    Audio #4
    ID                                       : 5
    Format                                   : AC-3
    Format/Info                              : Audio Coding 3
    Commercial name                          : Dolby Digital
    Codec ID                                 : A_AC3
    Duration                                 : 1 h 37 min
    Bit rate mode                            : Constant
    Bit rate                                 : 192 kb/s
    Channel(s)                               : 2 channels
    Channel layout                           : L R
    Sampling rate                            : 48.0 kHz
    Frame rate                               : 31.250 FPS (1536 SPF)
    Bit depth                                : 16 bits
    Compression mode                         : Lossy
    Stream size                              : 134 MiB (1%)
    Title                                    : Commentary by Jill Culton/Todd Wilderman/Suzanne Buirgy/Peilin Chou/John Hill/Max Boas/Mark Edwards
    Language                                 : English
    Service kind                             : Complete Main
    Default                                  : No
    Forced                                   : No
    
    Text #1
    ID                                       : 6
    Format                                   : PGS
    Muxing mode                              : zlib
    Codec ID                                 : S_HDMV/PGS
    Codec ID/Info                            : Picture based subtitle format used on BDs/HD-DVDs
    Duration                                 : 1 h 25 min
    Bit rate                                 : 38.6 kb/s
    Count of elements                        : 2138
    Stream size                              : 23.5 MiB (0%)
    Title                                    : Angsana UPC
    Language                                 : Thai
    Default                                  : Yes
    Forced                                   : No
    
    Text #2
    ID                                       : 7
    Format                                   : PGS
    Muxing mode                              : zlib
    Codec ID                                 : S_HDMV/PGS
    Codec ID/Info                            : Picture based subtitle format used on BDs/HD-DVDs
    Duration                                 : 1 h 25 min
    Bit rate                                 : 34.7 kb/s
    Count of elements                        : 2138
    Stream size                              : 21.1 MiB (0%)
    Title                                    : Tahoma
    Language                                 : Thai
    Default                                  : No
    Forced                                   : No
    
    Text #3
    ID                                       : 8
    Format                                   : VobSub
    Muxing mode                              : zlib
    Codec ID                                 : S_VOBSUB
    Codec ID/Info                            : Picture based subtitle format used on DVDs
    Duration                                 : 1 h 25 min
    Bit rate                                 : 4 851 b/s
    Count of elements                        : 1069
    Stream size                              : 2.95 MiB (0%)
    Title                                    : Angsana UPC
    Language                                 : Thai
    Default                                  : No
    Forced                                   : No
    
    Text #4
    ID                                       : 9
    Format                                   : VobSub
    Muxing mode                              : zlib
    Codec ID                                 : S_VOBSUB
    Codec ID/Info                            : Picture based subtitle format used on DVDs
    Duration                                 : 1 h 25 min
    Bit rate                                 : 4 469 b/s
    Count of elements                        : 1069
    Stream size                              : 2.72 MiB (0%)
    Title                                    : Tahoma
    Language                                 : Thai
    Default                                  : No
    Forced                                   : No
    
    Text #5
    ID                                       : 10
    Format                                   : PGS
    Muxing mode                              : zlib
    Codec ID                                 : S_HDMV/PGS
    Codec ID/Info                            : Picture based subtitle format used on BDs/HD-DVDs
    Duration                                 : 1 h 35 min
    Bit rate                                 : 38.1 kb/s
    Count of elements                        : 3090
    Stream size                              : 26.1 MiB (0%)
    Title                                    : English (SDH)
    Language                                 : English
    Default                                  : No
    Forced                                   : No
    
    Text #6
    ID                                       : 11
    Format                                   : PGS
    Muxing mode                              : zlib
    Codec ID                                 : S_HDMV/PGS
    Codec ID/Info                            : Picture based subtitle format used on BDs/HD-DVDs
    Duration                                 : 1 h 35 min
    Bit rate                                 : 24.8 kb/s
    Count of elements                        : 1994
    Stream size                              : 17.0 MiB (0%)
    Title                                    : French
    Language                                 : French
    Default                                  : No
    Forced                                   : No
    
    Text #7
    ID                                       : 12
    Format                                   : PGS
    Muxing mode                              : zlib
    Codec ID                                 : S_HDMV/PGS
    Codec ID/Info                            : Picture based subtitle format used on BDs/HD-DVDs
    Duration                                 : 1 h 35 min
    Bit rate                                 : 24.7 kb/s
    Count of elements                        : 2156
    Stream size                              : 16.9 MiB (0%)
    Title                                    : Spanish (Latin American)
    Language                                 : Spanish
    Default                                  : No
    Forced                                   : No



    Download: cornfile
    http://cornfile.com/hkrqqb8cgamg
    Download: mekafile
    http://www.mekafile.com/dl.php?f=iF7a72c4aWni

  2. #2
    Senior Member
    สมัครเมื่อ
    Jun 2014
    โพสต์
    2,511
    Thanks
    0
    Thanked 0 Times in 0 Posts
    ขอบคุณครับ

+ ตอบกลับกระทู้

ข้อมูลกระทู้

Users Browsing this Thread

ในขณะนี้มี 1 ท่านดูกระทู้อยู่. (0 สมาชิกและ 1 ผู้เยี่ยมชม)

     

กฎการโพสต์ข้อความ

  • ท่าน ไม่สามารถ ตั้งกระทู้ใหม่ได้
  • ท่าน ไม่สามารถ ตอบกระทู้ได้
  • ท่าน ไม่สามารถ แนบไฟล์ได้
  • ท่าน ไม่สามารถ แก้ไขข้อความโพสต์ได้
  • BB code สถานะ เปิด
  • Smilies สถานะ เปิด
  • [IMG] สถานะ เปิด
  • HTML สถานะ ปิด