+ ตอบกลับกระทู้
สรุปผลการค้นหา 1 ถึง 3 จากทั้งหมด 3
  1. #1
    Administrators รูปส่วนตัว Duckload.us
    สมัครเมื่อ
    Dec 2010
    โพสต์
    111,066
    Thanks
    7
    Thanked 116,400 Times in 53,059 Posts

    Question terminator dark fate (2019) ฅนเหล็ก วิกฤตชะตาโลก [พากย์:Eng DDP.5.1][SUB:ซับไทยแปลดี][1080p]



    เพราะเห็นว่า "จักรวาลของหุ่นยนต์ ไม่ได้มีเพียงหนึ่ง" "เจมส์ แคเมรอน" จึงสานต่อ หนังคนเหล็กภาคใหม่ให้สนุกมันและสมจริงกว่าเก่า พร้อมนำนักแสดงใหม่เข้ามามีบทบาทมากขึ้น ไม่ว่าจะเป็นตัวเอกใหม่ "แดนี่ ราโมส "(รับบทดโดย นาตาเลีย เรย์ส) , "เกรซ" มนุษย์ดัดแปรงไซบอร์ก รับบทโดย "แม็คเคนซี เดวิส" ซึ่งทั้งสองสาวต้องหลบหนีการไล่ล่าของ หุ่น REV-9 (รับบทโดย กาเบรียล ลูน่า) ที่มีการพัฒนาถึงขั้นแยกร่างต่อสู้ได้ 2 ร่าง แล้วใครจะเป็นผู้รอดชีวิตในตอนสุดท้าย

    Format : Matroska
    Format version : Version 4
    File size : 6.66 GiB
    Duration : 2 h 8 min
    Overall bit rate : 7 444 kb/s
    Encoded date : UTC 2020-01-17 06:45:39
    Writing application : mkvmerge v42.0.0 ('Overtime') 64-bit
    Writing library : libebml v1.3.10 + libmatroska v1.5.2
    Cover : Yes
    Attachments : small_cover.jpg / small_cover_land.jpg / cover.jpg / cover_land.jpg

    Video
    ID : 1
    Format : AVC
    Format/Info : Advanced Video Codec
    Format profile : [email protected]
    Format settings : CABAC / 2 Ref Frames
    Format settings, CABAC : Yes
    Format settings, Reference frames : 2 frames
    Codec ID : V_MPEG4/ISO/AVC
    Duration : 2 h 8 min
    Bit rate : 6 410 kb/s
    Width : 1 920 pixels
    Height : 1 080 pixels
    Display aspect ratio : 16:9
    Frame rate mode : Constant
    Frame rate : 23.976 (24000/1001) FPS
    Color space : YUV
    Chroma subsampling : 4:2:0
    Bit depth : 8 bits
    Scan type : Progressive
    Bits/(Pixel*Frame) : 0.129
    Stream size : 5.74 GiB (86%)
    Writing library : x264 core 155 r2901 7d0ff22
    Default : Yes
    Forced : No
    Color range : Limited
    Color primaries : BT.709
    Transfer characteristics : BT.709
    Matrix coefficients : BT.709

    Audio #1
    ID : 2
    Format : AC-3
    Format/Info : Audio Coding 3
    Commercial name : Dolby Digital
    Codec ID : A_AC3
    Duration : 2 h 8 min
    Bit rate mode : Constant
    Bit rate : 384 kb/s
    Channel(s) : 6 channels
    Channel layout : L R C LFE Ls Rs
    Sampling rate : 48.0 kHz
    Frame rate : 31.250 FPS (1536 SPF)
    Bit depth : 16 bits
    Compression mode : Lossy
    Stream size : 352 MiB (5%)
    Title : English
    Language : English
    Service kind : Complete Main
    Default : Yes
    Forced : No

    Audio #2
    ID : 5
    Format : E-AC-3
    Format/Info : Enhanced AC-3
    Commercial name : Dolby Digital Plus
    Codec ID : A_EAC3
    Duration : 2 h 8 min
    Bit rate mode : Constant
    Bit rate : 640 kb/s
    Channel(s) : 6 channels
    Channel layout : L R C LFE Ls Rs
    Sampling rate : 48.0 kHz
    Frame rate : 31.250 FPS (1536 SPF)
    Compression mode : Lossy
    Stream size : 586 MiB (9%)
    Language : English
    Service kind : Complete Main
    Default : No
    Forced : No

    Text #1
    ID : 3
    Format : UTF-8
    Codec ID : S_TEXT/UTF8
    Codec ID/Info : UTF-8 Plain Text
    Duration : 1 h 47 min
    Bit rate : 2 b/s
    Count of elements : 122
    Stream size : 2.36 KiB (0%)
    Title : FORCED
    Language : English
    Default : Yes
    Forced : Yes

    Text #2
    ID : 4
    Format : UTF-8
    Codec ID : S_TEXT/UTF8
    Codec ID/Info : UTF-8 Plain Text
    Duration : 1 h 57 min
    Bit rate : 31 b/s
    Count of elements : 1121
    Stream size : 27.4 KiB (0%)
    Language : English
    Default : No
    Forced : No

    Text #3
    ID : 6
    Format : VobSub
    Muxing mode : zlib
    Codec ID : S_VOBSUB
    Codec ID/Info : Picture based subtitle format used on DVDs
    Duration : 1 h 57 min
    Bit rate : 4 971 b/s
    Count of elements : 1240
    Stream size : 4.19 MiB (0%)
    Language : Thai
    Default : No
    Forced : No

    Text #4
    ID : 7
    Format : PGS
    Muxing mode : zlib
    Codec ID : S_HDMV/PGS
    Codec ID/Info : Picture based subtitle format used on BDs/HD-DVDs
    Duration : 1 h 57 min
    Bit rate : 24.0 kb/s
    Count of elements : 2480
    Stream size : 20.2 MiB (0%)
    Language : Thai
    Default : No
    Forced : No

    by samecm





    Download: cornfile
    http://cornfile.com/oq9pw4pn6wes
    Download: mekafile
    http://www.mekafile.com/dl.php?f=Uu3afcc4gpwa

  2. The Following 4 Users Say Thank You to Duckload.us For This Useful Post:

    agg001 (01-23-2020), amorn wichian (01-20-2020), mettset (01-24-2020), noi54 (01-22-2020)

  3. #2
    Senior Member
    สมัครเมื่อ
    Jun 2014
    โพสต์
    2,511
    Thanks
    0
    Thanked 0 Times in 0 Posts
    ขอบคุณครับ

  4. #3
    Senior Member
    สมัครเมื่อ
    Jan 2011
    โพสต์
    684
    Thanks
    923
    Thanked 0 Times in 0 Posts
    ขอบคุณครับ

+ ตอบกลับกระทู้

ข้อมูลกระทู้

Users Browsing this Thread

ในขณะนี้มี 1 ท่านดูกระทู้อยู่. (0 สมาชิกและ 1 ผู้เยี่ยมชม)

     

กฎการโพสต์ข้อความ

  • ท่าน ไม่สามารถ ตั้งกระทู้ใหม่ได้
  • ท่าน ไม่สามารถ ตอบกระทู้ได้
  • ท่าน ไม่สามารถ แนบไฟล์ได้
  • ท่าน ไม่สามารถ แก้ไขข้อความโพสต์ได้
  • BB code สถานะ เปิด
  • Smilies สถานะ เปิด
  • [IMG] สถานะ เปิด
  • HTML สถานะ ปิด