+ ตอบกลับกระทู้
สรุปผลการค้นหา 1 ถึง 7 จากทั้งหมด 7
  1. #1
    Administrators รูปส่วนตัว Duckload.us
    สมัครเมื่อ
    Dec 2010
    โพสต์
    111,066
    Thanks
    7
    Thanked 116,402 Times in 53,059 Posts

    Question (จีน.ใหม่.พากย์ไทยมาสเตอร์) THE WORM VALLEY (2018) โมจิน หุบเขาหนอน-[BR.1080p][ Sound:Chi AC3 5.1/Thai AC3 2.0:Master][ SUB:Eng.PGS]




    การกลับมาอีกครั้งของนักสำรวจหลุมฝังศพโบราณ Hu Bayi กับภารกิจที่อันตรายยิ่งขึ้นขณะที่เขาค้นหาสุสานจักร พรรดิซีเสียน ได้พบสัตว์ประหลาดในการผจญภัยอันลึกลับสุดตื่นเต้น

    Format : Matroska
    Format version : Version 4
    File size : 3.77 GiB
    Duration : 1 h 50 min
    Overall bit rate : 4 894 kb/s
    Movie name : Mojin.The.Worm.Valley.2018.CHINESE.1080p.BluRay.H2 64._©GOLD CUP™
    Video
    ID : 1
    Format : AVC
    Format/Info : Advanced Video Codec
    Format profile : [email protected]
    Format settings : CABAC / 1 Ref Frames
    Format settings, CABAC : Yes
    Format settings, Reference : 1 frame
    Format settings, GOP : M=1, N=25
    Codec ID : V_MPEG4/ISO/AVC
    Duration : 1 h 50 min
    Bit rate mode : Constant
    Bit rate : 3 800 kb/s
    Width : 1 920 pixels
    Height : 818 pixels
    Display aspect ratio : 2.35:1
    Frame rate mode : Constant
    Frame rate : 29.970 (30000/1001) FPS
    Color space : YUV
    Chroma subsampling : 4:2:0
    Bit depth : 8 bits
    Scan type : Progressive
    Bits/(Pixel*Frame) : 0.081
    Stream size : 2.92 GiB (78%)
    Title : Mojin.The.Worm.Valley.2018.CHINESE.1080p.BluRay.H2 64._©GOLD CUP™
    Language : Chinese
    Default : Yes
    Forced : No

    Audio #1
    ID : 2
    Format : AC-3
    Format/Info : Audio Coding 3
    Commercial name : Dolby Digital
    Codec ID : A_AC3
    Duration : 1 h 50 min
    Bit rate mode : Constant
    Bit rate : 448 kb/s
    Channel(s) : 2 channels
    Channel layout : L R
    Sampling rate : 44.1 kHz
    Frame rate : 28.711 FPS (1536 SPF)
    Compression mode : Lossy
    Stream size : 353 MiB (9%)
    Title : 2.0 AAC TH 448k 353m_©GOLD CUP™
    Language : Thai
    Service kind : Complete Main
    Default : Yes
    Forced : No

    Audio #2
    ID : 3
    Format : AC-3
    Format/Info : Audio Coding 3
    Commercial name : Dolby Digital
    Codec ID : A_AC3
    Duration : 1 h 50 min
    Bit rate mode : Constant
    Bit rate : 640 kb/s
    Channel(s) : 6 channels
    Channel layout : L R C LFE Ls Rs
    Sampling rate : 44.1 kHz
    Frame rate : 28.711 FPS (1536 SPF)
    Compression mode : Lossy
    Stream size : 505 MiB (13%)
    Title : 5.1 AC3 Chi 640k 504m_©GOLD CUP™
    Language : Chinese
    Service kind : Complete Main
    Default : No
    Forced : No

    Text
    ID : 4
    Format : PGS
    Muxing mode : zlib
    Codec ID : S_HDMV/PGS
    Codec ID/Info : Picture based subtitle format used on BDs/HD-DVDs
    Duration : 1 h 41 min
    Bit rate : 12.7 kb/s
    Count of elements : 1740
    Stream size : 9.20 MiB (0%)
    Title : En.Pgs.white.85-60-10_©GOLD CUP™
    Language : English
    Default : Yes
    Forced : No







    Download: cornfile
    http://cornfile.com/fvhk7oqfrgbg
    Download: mekafile
    http://www.mekafile.com/dl.php?f=Uf14b4c4iK2X

  2. The Following 5 Users Say Thank You to Duckload.us For This Useful Post:

    apichartdear (01-21-2020), gaszolineskywalker (02-02-2020), NaiWan (01-26-2020), Tellmon (01-23-2020), Wesker_TOT (01-21-2020)

  3. #2
    Senior Member
    สมัครเมื่อ
    Dec 2013
    โพสต์
    1,974
    Thanks
    3,895
    Thanked 0 Times in 0 Posts
    ขอบคุณครับ...

  4. #3
    Senior Member
    สมัครเมื่อ
    Jun 2014
    โพสต์
    2,511
    Thanks
    0
    Thanked 0 Times in 0 Posts
    ขอบคุณครับ

  5. #4
    Senior Member
    สมัครเมื่อ
    Oct 2013
    โพสต์
    1,643
    Thanks
    0
    Thanked 0 Times in 0 Posts
    ขอบคุณครับ

  6. #5
    Senior Member
    สมัครเมื่อ
    Jul 2014
    โพสต์
    185
    Thanks
    5
    Thanked 0 Times in 0 Posts
    ขอบคุณมากครับ

  7. #6
    Member รูปส่วนตัว ksurachai
    สมัครเมื่อ
    Nov 2019
    โพสต์
    73
    Thanks
    10
    Thanked 0 Times in 0 Posts
    ขอบคุณมากครับ

  8. #7
    Senior Member
    สมัครเมื่อ
    Oct 2012
    โพสต์
    878
    Thanks
    1,813
    Thanked 0 Times in 0 Posts
    ขอบคุณครับ

+ ตอบกลับกระทู้

ข้อมูลกระทู้

Users Browsing this Thread

ในขณะนี้มี 1 ท่านดูกระทู้อยู่. (0 สมาชิกและ 1 ผู้เยี่ยมชม)

     

กฎการโพสต์ข้อความ

  • ท่าน ไม่สามารถ ตั้งกระทู้ใหม่ได้
  • ท่าน ไม่สามารถ ตอบกระทู้ได้
  • ท่าน ไม่สามารถ แนบไฟล์ได้
  • ท่าน ไม่สามารถ แก้ไขข้อความโพสต์ได้
  • BB code สถานะ เปิด
  • Smilies สถานะ เปิด
  • [IMG] สถานะ เปิด
  • HTML สถานะ ปิด