Code:
Format                         : Matroska
Format version                 : Version 4 / Version 2
File size                      : 3.20 GiB
Duration                       : 2 h 12 min
Overall bit rate               : 3 467 kb/s
Movie name                     : [email protected]
Encoded date                   : UTC 2020-01-21 11:41:06
Writing application            : mkvmerge v41.0.0 ('Smarra') 64-bit
Writing library                : libebml v1.3.9 + libmatroska v1.5.2

Video
ID                             : 1
Format                         : AVC
Format/Info                    : Advanced Video Codec
Format profile                 : [email protected]
Format settings, CABAC         : Yes
Format settings, RefFrames     : 3 frames
Codec ID                       : V_MPEG4/ISO/AVC
Duration                       : 2 h 12 min
Bit rate                       : 2 755 kb/s
Width                          : 1 920 pixels
Height                         : 1 080 pixels
Display aspect ratio           : 16:9
Frame rate mode                : Constant
Frame rate                     : 24.000 FPS
Color space                    : YUV
Chroma subsampling             : 4:2:0
Bit depth                      : 8 bits
Scan type                      : Progressive
Bits/(Pixel*Frame)             : 0.055
Stream size                    : 2.54 GiB (79%)
Default                        : Yes
Forced                         : No
Comment                        : NETFLIX BY ARGON

Audio
ID                             : 2
Format                         : E-AC-3
Format/Info                    : Enhanced Audio Coding 3
Format settings, Endianness    : Big
Codec ID                       : A_EAC3
Duration                       : 2 h 12 min
Bit rate mode                  : Constant
Bit rate                       : 640 kb/s
Channel(s)                     : 6 channels
Channel positions              : Front: L C R, Side: L R, LFE
Sampling rate                  : 48.0 kHz
Frame rate                     : 187.500 FPS (256 SPF)
Compression mode               : Lossy
Delay relative to video        : -83 ms
Stream size                    : 605 MiB (18%)
Title                          : HINDI AC3
Language                       : Hindi
Service kind                   : Complete Main
Default                        : Yes
Forced                         : No

Text #1
ID                             : 3
Format                         : PGS
Muxing mode                    : zlib
Codec ID                       : S_HDMV/PGS
Codec ID/Info                  : Picture based subtitle format used on BDs/HD-DVDs
Duration                       : 2 h 12 min
Bit rate                       : 53.5 kb/s
Count of elements              : 3524
Stream size                    : 50.5 MiB (2%)
Title                          : TH_PGS
Language                       : Thai
Default                        : Yes
Forced                         : No

Text #2
ID                             : 4
Format                         : VobSub
Muxing mode                    : zlib
Codec ID                       : S_VOBSUB
Codec ID/Info                  : Picture based subtitle format used on DVDs
Duration                       : 2 h 12 min
Bit rate                       : 10.9 kb/s
Count of elements              : 1762
Stream size                    : 10.3 MiB (0%)
Title                          : TH_VOBSUB
Language                       : Thai
Default                        : No
Forced                         : No

Text #3
ID                             : 5
Format                         : VobSub
Muxing mode                    : zlib
Codec ID                       : S_VOBSUB
Codec ID/Info                  : Picture based subtitle format used on DVDs
Duration                       : 2 h 12 min
Bit rate                       : 10.9 kb/s
Count of elements              : 1762
Stream size                    : 10.3 MiB (0%)
Title                          : TH_VOBSUB_YELLOW
Language                       : Thai
Default                        : No
Forced                         : No

Text #4
ID                             : 6
Format                         : PGS
Muxing mode                    : zlib
Codec ID                       : S_HDMV/PGS
Codec ID/Info                  : Picture based subtitle format used on BDs/HD-DVDs
Duration                       : 2 h 6 min
Bit rate                       : 47.5 kb/s
Count of elements              : 3758
Stream size                    : 43.1 MiB (1%)
Title                          : EN_PGS
Language                       : English
Default                        : No
Forced                         : No










Download: cornfile
http://cornfile.com/0wcbh0xy52hr
Download: mekafile
http://www.mekafile.com/dl.php?f=if3740c4lEYG