+ ตอบกลับกระทู้
สรุปผลการค้นหา 1 ถึง 3 จากทั้งหมด 3
  1. #1
    Administrators รูปส่วนตัว Duckload.us
    สมัครเมื่อ
    Dec 2010
    โพสต์
    118,373
    Thanks
    7
    Thanked 124,432 Times in 55,685 Posts

    Question [ฝรั่ง]-Danger Close: The Battle of Long Tan (2019) ฝ่าสมรภูมิลองแทน - [Soundtrack บรรยายไทย(แปล)+อังกฤษ] 1080p.AMZN.WEB-DL.DDP5.1.H.264




    สร้างจากวีรกรรมจริงของบรรดาทหารออสเตรเลียและนิวซีแ ลนด์ บ่ายของวันที่ 18 สิงหาคม ปี 1966

    Long Tan เวียดนามใต้ เมื่อพันตรีแฮรี่ สมิธและทหารในกองร้อยราว 108 นายถูกล้อมกรอบจากกำลังทหารเวียดกงกว่า 2,500 นาย การดิ้นรนต่อสู้เพื่อรักษาชีวิตรอดและบทพิสูจน์ความก ล้าหาญ อีกหนึ่งในวีรกรรมของบรรดาทหารแอนแซคที่ได้รับการกล่ าวขานให้เป็นตำนาน การต้านทานของโจมตีสุดหฤโหดกว่า สี่ชั่วโมง ในสถานการณ์อันยากลำบาก

    Duration : 1 h 58 min
    Overall bit rate : 7 548 kb/s
    Encoded date : UTC 2020-01-22 14:50:17
    Writing application : mkvmerge v42.0.0 ('Overtime') 64-bit
    Writing library : libebml v1.3.10 + libmatroska v1.5.2
    Cover : Yes
    Attachments : cover

    Video
    ID : 1
    Format : AVC
    Format/Info : Advanced Video Codec
    Format profile : [email protected]
    Format settings : CABAC / 4 Ref Frames
    Format settings, CABAC : Yes
    Format settings, Reference frames : 4 frames
    Codec ID : V_MPEG4/ISO/AVC
    Duration : 1 h 58 min
    Bit rate mode : Constant
    Bit rate : 6 834 kb/s
    Nominal bit rate : 10 000 kb/s
    Width : 1 920 pixels
    Height : 800 pixels
    Display aspect ratio : 2.40:1
    Frame rate mode : Constant
    Frame rate : 23.976 (24000/1001) FPS
    Color space : YUV
    Chroma subsampling : 4:2:0
    Bit depth : 8 bits
    Scan type : Progressive
    Bits/(Pixel*Frame) : 0.186
    Stream size : 5.67 GiB (91%)
    Default : Yes
    Forced : No
    Color range : Limited
    Color primaries : BT.709
    Transfer characteristics : BT.709
    Matrix coefficients : BT.709

    Audio
    ID : 2
    Format : E-AC-3
    Format/Info : Enhanced AC-3
    Commercial name : Dolby Digital Plus
    Codec ID : A_EAC3
    Duration : 1 h 58 min
    Bit rate mode : Constant
    Bit rate : 640 kb/s
    Channel(s) : 6 channels
    Channel layout : L R C LFE Ls Rs
    Sampling rate : 48.0 kHz
    Frame rate : 31.250 FPS (1536 SPF)
    Compression mode : Lossy
    Stream size : 543 MiB (8%)
    Language : English
    Service kind : Complete Main
    Default : Yes
    Forced : No

    Text #1
    ID : 3
    Format : VobSub
    Muxing mode : zlib
    Codec ID : S_VOBSUB
    Codec ID/Info : Picture based subtitle format used on DVDs
    Duration : 1 h 57 min
    Bit rate : 9 876 b/s
    Count of elements : 1447
    Stream size : 8.27 MiB (0%)
    Language : English
    Default : No
    Forced : No

    Text #2
    ID : 4
    Format : PGS
    Muxing mode : zlib
    Codec ID : S_HDMV/PGS
    Codec ID/Info : Picture based subtitle format used on BDs/HD-DVDs
    Duration : 1 h 57 min
    Bit rate : 45.5 kb/s
    Count of elements : 2894
    Stream size : 38.1 MiB (1%)
    Title : Gray
    Language : English
    Default : No
    Forced : No

    Text #3
    ID : 5
    Format : PGS
    Muxing mode : zlib
    Codec ID : S_HDMV/PGS
    Codec ID/Info : Picture based subtitle format used on BDs/HD-DVDs
    Duration : 1 h 57 min
    Bit rate : 45.5 kb/s
    Count of elements : 2894
    Stream size : 38.1 MiB (1%)
    Title : White
    Language : English
    Default : No
    Forced : No

    Text #4
    ID : 6
    Format : VobSub
    Muxing mode : zlib
    Codec ID : S_VOBSUB
    Codec ID/Info : Picture based subtitle format used on DVDs
    Duration : 1 h 41 min
    Bit rate : 6 628 b/s
    Count of elements : 1089
    Stream size : 4.79 MiB (0%)
    Language : Thai
    Default : No
    Forced : No

    Text #5
    ID : 7
    Format : PGS
    Muxing mode : zlib
    Codec ID : S_HDMV/PGS
    Codec ID/Info : Picture based subtitle format used on BDs/HD-DVDs
    Duration : 1 h 41 min
    Bit rate : 31.3 kb/s
    Count of elements : 2178
    Stream size : 22.6 MiB (0%)
    Title : Gray
    Language : Thai
    Default : No
    Forced : No

    Text #6
    ID : 8
    Format : PGS
    Muxing mode : zlib
    Codec ID : S_HDMV/PGS
    Codec ID/Info : Picture based subtitle format used on BDs/HD-DVDs
    Duration : 1 h 41 min
    Bit rate : 31.3 kb/s
    Count of elements : 2178
    Stream size : 22.6 MiB (0%)
    Title : White
    Language : Thai
    Default : Yes
    Forced : No






    Download: cornfile
    http://cornfile.com/g1x6n1maywsd
    Download: mekafile
    http://www.filecondo.com/dl.php?f=8ef258c4nR21

  2. The Following 3 Users Say Thank You to Duckload.us For This Useful Post:

    bigbang06 (01-24-2020), chock (01-25-2020), gozilla02 (01-25-2020)

  3. #2
    Senior Member
    สมัครเมื่อ
    Jul 2014
    โพสต์
    185
    Thanks
    5
    Thanked 0 Times in 0 Posts
    ขอบคุณมากครับ

  4. #3
    Senior Member
    สมัครเมื่อ
    Jun 2014
    โพสต์
    4,621
    Thanks
    0
    Thanked 0 Times in 0 Posts
    ขอบคุณครับ

+ ตอบกลับกระทู้

ข้อมูลกระทู้

Users Browsing this Thread

ในขณะนี้มี 1 ท่านดูกระทู้อยู่. (0 สมาชิกและ 1 ผู้เยี่ยมชม)

     

กฎการโพสต์ข้อความ

  • ท่าน ไม่สามารถ ตั้งกระทู้ใหม่ได้
  • ท่าน ไม่สามารถ ตอบกระทู้ได้
  • ท่าน ไม่สามารถ แนบไฟล์ได้
  • ท่าน ไม่สามารถ แก้ไขข้อความโพสต์ได้
  • BB code สถานะ เปิด
  • Smilies สถานะ เปิด
  • [IMG] สถานะ เปิด
  • HTML สถานะ ปิด