+ ตอบกลับกระทู้
สรุปผลการค้นหา 1 ถึง 4 จากทั้งหมด 4
  1. #1
    Administrators รูปส่วนตัว Duckload.us
    สมัครเมื่อ
    Dec 2010
    โพสต์
    111,443
    Thanks
    7
    Thanked 116,899 Times in 53,189 Posts

    Question [ฝรั่ง]-[New-Master] Doctor Sleep [2019] ลางนรก-Encode.H.264.1080p. [Modified]-[Sound:Eng AC3 5.1/Tha AC3 2.0]-[SUB: อังกฤษ]



    เรื่องย่อ
    “Doctor Sleep” จะเป็นเรื่องราวหลังจากเหตุการณ์ใน The Shining ในอีก 40 ปีถัดมาจากเหตุการณ์สยอง ณ โรงแรมโอเวอร์ลุค ที่ยังคงทำให้แดนรู้สึกหวาดกลัวจนถึงทุกวันนี้ แดนพยายามหาวิธีให้ตัวเองได้ใช้ชีวิตอย่างปกติสุขที่ สุด แต่ความสงบสุขนั้นกลับพังทลายลงเมื่อแดนได้เจอกับ แอบรา หญิงสาวจิตใจกล้าหาญเจ้าของพลังวิเศษเรียกว่า “ไชน์” ที่เดินทางออกตามหาแดนเพื่อขอความช่วยเหลือให้ร่วมต่ อสู้กับ โรส เดอะ แฮท ผู้เหี้ยมโหด และเดอะ ทรู น็อต กลุ่มลัทธิคัลต์ลูกสมุนของเธอ ที่ออกตามล่าเด็กผู้บริสุทธิ์เพื่อชีวิตอมตะของตัวเอ ง

    จากคนแปลกหน้ากลายเป็นพันธมิตร ในระหว่างที่แดนและแอบราต้องเอาชีวิตเข้าเสี่ยงอันตร ายในสงครามใหญ่กับโรส จิตใจอันบริสุทธิ์และกล้าหาญของแอบรากลับปลุกพลังลึก ลับภายในตัวของแดนขึ้นมาอย่างที่ไม่เคยเป็นมาก่อน แต่นั่นทำให้เหล่าภูติผีวิญญาณร้ายในอดีตฟื้นคืน และทำให้แดนต้องเผชิญหน้ากับความหวาดกลัวอีกครั้ง

    “Doctor Sleep” สร้างอิงจากนวนิยายชื่อเดียวกันของเจ้าพ่อสยองขวัญ สตีเฟ่น คิง ซึ่งเป็นภาคต่อของนวนิยาย The Shining ที่มีการสร้างเป็นภาพยนตร์และขึ้นแท่นเป็นต้นตำรับคว ามสยองไปเมื่อปี 1980 กำกับและเขียนบทโดยไมค์ ฟลานาแกน ผู้ฝากผลงานสยองชื่อดังไว้แล้วมากมายอาทิ Oculus (2013), Before I Wake (2016), Gerald’s Game (2017) และซีรีส์ทางช่องสตรีมมิ่ง The Haunting of Hill House ร่วมกับทีมนักแสดงนำโดย ยวน แม็คเกรเกอร์, รีเบคก้า เฟอร์กูสัน และเจค็อบ เทรมเบลย์

    Format : Matroska
    Format version : Version 4
    File size : 3.96 GiB
    Duration : 2 h 32 min
    Overall bit rate : 3 712 kb/s
    Movie name : Doctor.Sleep.2019.1080p.WEBRip.x264_©GOLD CUP™
    Encoded date : UTC 2020-01-25 03:00:18
    Writing application : mkvmerge v42.0.0 ('Overtime') 64-bit
    Writing library : libebml v1.3.10 + libmatroska v1.5.2
    Cover : Yes
    Attachments : cover1.jpg

    Video
    ID : 1
    Format : AVC
    Format/Info : Advanced Video Codec
    Format profile : [email protected]
    Format settings : CABAC / 1 Ref Frames
    Format settings, CABAC : Yes
    Format settings, Reference frames : 1 frame
    Format settings, GOP : M=1, N=25
    Codec ID : V_MPEG4/ISO/AVC
    Duration : 2 h 32 min
    Bit rate mode : Constant
    Bit rate : 3 000 kb/s
    Width : 1 920 pixels
    Height : 1 024 pixels
    Display aspect ratio : 1.85:1
    Frame rate mode : Constant
    Frame rate : 29.970 (30000/1001) FPS
    Color space : YUV
    Chroma subsampling : 4:2:0
    Bit depth : 8 bits
    Scan type : Progressive
    Bits/(Pixel*Frame) : 0.051
    Stream size : 3.20 GiB (81%)
    Title : Doctor.Sleep.2019.1080p.WEBRip.x264_©GOLD CUP™
    Language : English
    Default : Yes
    Forced : No

    Audio #1
    ID : 2
    Format : AC-3
    Format/Info : Audio Coding 3
    Commercial name : Dolby Digital
    Codec ID : A_AC3
    Duration : 2 h 32 min
    Bit rate mode : Constant
    Bit rate : 256 kb/s
    Channel(s) : 2 channels
    Channel layout : L R
    Sampling rate : 44.1 kHz
    Frame rate : 28.711 FPS (1536 SPF)
    Bit depth : 16 bits
    Compression mode : Lossy
    Stream size : 280 MiB (7%)
    Title : 2.0 AC3 TH 256k 279m_©GOLD CUP™
    Language : Thai
    Service kind : Complete Main
    Default : Yes
    Forced : No

    Audio #2
    ID : 3
    Format : AC-3
    Format/Info : Audio Coding 3
    Commercial name : Dolby Digital
    Codec ID : A_AC3
    Duration : 2 h 32 min
    Bit rate mode : Constant
    Bit rate : 448 kb/s
    Channel(s) : 6 channels
    Channel layout : L R C LFE Ls Rs
    Sampling rate : 44.1 kHz
    Frame rate : 28.711 FPS (1536 SPF)
    Bit depth : 16 bits
    Compression mode : Lossy
    Stream size : 490 MiB (12%)
    Title : 5.1 AC3 En 448k 489m_©GOLD CUP™
    Language : English
    Service kind : Complete Main
    Default : No
    Forced : No

    Text
    ID : 4
    Format : PGS
    Muxing mode : zlib
    Codec ID : S_HDMV/PGS
    Codec ID/Info : Picture based subtitle format used on BDs/HD-DVDs
    Duration : 2 h 26 min
    Bit rate : 15.7 kb/s
    Count of elements : 3100
    Stream size : 16.4 MiB (0%)
    Title : EN.PGS.white.85-60-10_©GOLD CUP™
    Language : English
    Default : Yes
    Forced : No





    Download: cornfile
    http://cornfile.com/7890feh108a1
    Download: mekafile
    http://www.mekafile.com/dl.php?f=0I9cd4c4sWZR

  2. The Following 5 Users Say Thank You to Duckload.us For This Useful Post:

    bigbang06 (01-27-2020), gaszolineskywalker (02-02-2020), noi54 (01-28-2020), Tatum03 (01-28-2020), Wesker_TOT (01-29-2020)

  3. #2
    Senior Member
    สมัครเมื่อ
    Jun 2014
    โพสต์
    2,638
    Thanks
    0
    Thanked 0 Times in 0 Posts
    ขอบคุณครับ

  4. #3
    Senior Member
    สมัครเมื่อ
    Dec 2013
    โพสต์
    2,006
    Thanks
    3,922
    Thanked 0 Times in 0 Posts
    ขอบคุณนะครับ...

  5. #4
    Senior Member
    สมัครเมื่อ
    Oct 2012
    โพสต์
    881
    Thanks
    1,817
    Thanked 0 Times in 0 Posts
    ขอบคุณครับ

+ ตอบกลับกระทู้

ข้อมูลกระทู้

Users Browsing this Thread

ในขณะนี้มี 1 ท่านดูกระทู้อยู่. (0 สมาชิกและ 1 ผู้เยี่ยมชม)

     

กฎการโพสต์ข้อความ

  • ท่าน ไม่สามารถ ตั้งกระทู้ใหม่ได้
  • ท่าน ไม่สามารถ ตอบกระทู้ได้
  • ท่าน ไม่สามารถ แนบไฟล์ได้
  • ท่าน ไม่สามารถ แก้ไขข้อความโพสต์ได้
  • BB code สถานะ เปิด
  • Smilies สถานะ เปิด
  • [IMG] สถานะ เปิด
  • HTML สถานะ ปิด