+ ตอบกลับกระทู้
สรุปผลการค้นหา 1 ถึง 3 จากทั้งหมด 3
  1. #1
    Administrators รูปส่วนตัว Duckload.us
    สมัครเมื่อ
    Dec 2010
    โพสต์
    118,671
    Thanks
    7
    Thanked 124,659 Times in 55,804 Posts

    Question [เกาหลี]-[* ใหม่ ภาพ.มาสเตอร์+เสียงไทยโรงครบ! *] Ashfall (2020) นรกล้างเมือง [* 1080p.HDRip.x264.AC3.THR2.0 *] [พากย์ไทยโรง 2.0 + เสียงเกาหลี 2.0] [ไฟล์เล็กคุณภาพ!!]





    เรื่องย่อ : เรื่องราวเมื่อภูเขาไฟเพ็กตูที่สูงที่สุดในเกาหลีเกิ ดปะทุขึ้นนำไปสู่ภัยพิบัติสั่นสะเทือนแผ่นดินเกาหลีเ กิดขึ้นอย่างไม่มีใครคาดคิด เกิดวิบัติไปทั้งกรุงโซลและกรุงเปียงยาง เพื่อรับมือกับหายนะครั้งนี้ ผู้เชี่ยวชาญด้านวัตถุระเบิดชาวเกาหลีใต้ (ฮา จองอู) จึงต้องร่วมมือกับ เจ้าหน้าที่พิเศษชาวเกาหลีเหนือ (อี บยองฮอน) และ นักธรณีวิทยาอันดับหนึ่งของประเทศ (มา ดงซอก) เพื่อหยุดยั้งเหตุวินาศที่อาจจะทำให้เกาหลีหายไปจากแ ผนที่โลก!!

    Video
    ID : 1
    Format : AVC
    Format/Info : Advanced Video Codec
    Format profile : [email protected]
    Format settings, CABAC : Yes
    Format settings, RefFrames : 4 frames
    Codec ID : V_MPEG4/ISO/AVC
    Duration : 2 h 8 min
    Bit rate : 4 500 kb/s
    Width : 1 920 pixels
    Height : 804 pixels
    Display aspect ratio : 2.40:1
    Frame rate mode : Constant
    Frame rate : 23.976 FPS
    Color space : YUV
    Chroma subsampling : 4:2:0
    Bit depth : 8 bits
    Scan type : Progressive
    Bits/(Pixel*Frame) : 0.122
    Stream size : 4.03 GiB (90%)
    Title : Ashfall.2019.1080p.HDRip.x264.AC3.THR2.0_HeRMineZ
    Writing library : x264 core 155 r2901 7d0ff22
    Encoding settings : cabac=1 / ref=2 / deblock=1:0:0 / analyse=0x1:0x111 / me=hex / subme=6 / psy=1 / psy_rd=1.00:0.00 / mixed_ref=1 / me_range=16 / chroma_me=1 / trellis=1 / 8x8dct=0 / cqm=0 / deadzone=21,11 / fast_pskip=1 / chroma_qp_offset=-2 / threads=6 / lookahead_threads=1 / sliced_threads=0 / nr=0 / decimate=1 / interlaced=0 / bluray_compat=0 / constrained_intra=0 / bframes=3 / b_pyramid=2 / b_adapt=1 / b_bias=0 / direct=1 / weightb=1 / open_gop=0 / weightp=1 / keyint=240 / keyint_min=24 / scenecut=40 / intra_refresh=0 / rc_lookahead=30 / rc=2pass / mbtree=1 / bitrate=4500 / ratetol=1.0 / qcomp=0.60 / qpmin=0 / qpmax=69 / qpstep=4 / cplxblur=20.0 / qblur=0.5 / vbv_maxrate=20000 / vbv_bufsize=25000 / nal_hrd=none / filler=0 / ip_ratio=1.40 / aq=1:1.00
    Default : Yes
    Forced : No
    Color range : Limited
    Color primaries : BT.709
    Transfer characteristics : BT.709
    Matrix coefficients : BT.709

    Audio #1
    ID : 2
    Format : AC-3
    Format/Info : Audio Coding 3
    Format settings, Endianness : Big
    Codec ID : A_AC3
    Duration : 2 h 8 min
    Bit rate mode : Constant
    Bit rate : 192 kb/s
    Channel(s) : 2 channels
    Channel positions : Front: L R
    Sampling rate : 48.0 kHz
    Frame rate : 31.250 FPS (1536 SPF)
    Bit depth : 16 bits
    Compression mode : Lossy
    Delay relative to video : -5 ms
    Stream size : 176 MiB (4%)
    Title : Thai Rong 2.0 Modified By HeRMineZ @192 Kbps
    Language : Thai
    Service kind : Complete Main
    Default : Yes
    Forced : No

    Audio #2
    ID : 3
    Format : AC-3
    Format/Info : Audio Coding 3
    Format settings, Endianness : Big
    Codec ID : A_AC3
    Duration : 2 h 8 min
    Bit rate mode : Constant
    Bit rate : 320 kb/s
    Channel(s) : 2 channels
    Channel positions : Front: L R
    Sampling rate : 48.0 kHz
    Frame rate : 31.250 FPS (1536 SPF)
    Bit depth : 16 bits
    Compression mode : Lossy
    Delay relative to video : -5 ms
    Stream size : 294 MiB (6%)
    Title : Korean 2.0 @320 Kbps
    Language : Korean
    Service kind : Complete Main
    Default : No
    Forced : No














    Download: cornfile
    http://cornfile.com/jpvo5oelvjp9
    Download: mekafile
    http://www.filecondo.com/dl.php?f=0Ha0f9c4viqZ

  2. The Following 2 Users Say Thank You to Duckload.us For This Useful Post:

    Tellmon (01-27-2020), Wesker_TOT (01-26-2020)

  3. #2
    Senior Member
    สมัครเมื่อ
    Jun 2014
    โพสต์
    4,621
    Thanks
    0
    Thanked 0 Times in 0 Posts
    ขอบคุณครับ

  4. #3
    Senior Member
    สมัครเมื่อ
    Dec 2013
    โพสต์
    2,382
    Thanks
    4,307
    Thanked 0 Times in 0 Posts
    ขอบคุณนะครับ...

+ ตอบกลับกระทู้

ข้อมูลกระทู้

Users Browsing this Thread

ในขณะนี้มี 1 ท่านดูกระทู้อยู่. (0 สมาชิกและ 1 ผู้เยี่ยมชม)

     

กฎการโพสต์ข้อความ

  • ท่าน ไม่สามารถ ตั้งกระทู้ใหม่ได้
  • ท่าน ไม่สามารถ ตอบกระทู้ได้
  • ท่าน ไม่สามารถ แนบไฟล์ได้
  • ท่าน ไม่สามารถ แก้ไขข้อความโพสต์ได้
  • BB code สถานะ เปิด
  • Smilies สถานะ เปิด
  • [IMG] สถานะ เปิด
  • HTML สถานะ ปิด