+ ตอบกลับกระทู้
สรุปผลการค้นหา 1 ถึง 3 จากทั้งหมด 3
  1. #1
    Administrators รูปส่วนตัว Duckload.us
    สมัครเมื่อ
    Dec 2010
    โพสต์
    111,060
    Thanks
    7
    Thanked 116,361 Times in 53,052 Posts

    Question (จีน.ใหม่.พากย์ไทยมาสเตอร์)-KUNG FU LEAGUE (2018) ยิปมัน ตะบัน บรูซลี บี้หวงเฟยหง-[BR.1080p][Sound:Chi/Thai AC3 2.0:Master][SUB:Eng.PGS]




    เรื่องย่อ Kung Fu League ยิปมัน ตะบัน บรูซลี บี้หวงเฟยหง
    Kung Fu League จับเอาตัวละครยอดฝีมือแห่งโลกกังฟู อย่าง หวงเฟยหง ยิปมัน ฮั่วหยวนเจี๋ย และ เฉินเจิน มาพบกันเป็นครั้งแรกในภาพยนตร์เรื่องเดียวกัน

    ได้นักแสดงอย่าง Dennis To ตู้หยู่หัง รับบท ยิปมัน, เฉินกั๋วคุน รับบท เฉินเจิน, Andy On อันจื้อเจี๋ย รับบท ฮั่วหยวนเจี๋ย และ การกลับมารับบท หวงเฟยหง
    อีกคำรบหนึ่งของ เจ้าเหวินจั๋ว เจ้าของบทบาท หวงเฟยหงที่รับไม้ต่อจาก หลี่เหลี่ยนเจี๋ย

    Format : Matroska
    Format version : Version 4
    File size : 3.78 GiB
    Duration : 1 h 42 min
    Overall bit rate : 5 292 kb/s
    Movie name : Kung.Fu.League.2018.1080p.BluRay.x264_©GOLD CUP™
    Encoded date : UTC 2020-01-25 09:11:08
    Writing application : mkvmerge v42.0.0 ('Overtime') 64-bit
    Writing library : libebml v1.3.10 + libmatroska v1.5.2
    Cover : Yes
    Attachments : cover.jpg

    Video
    ID : 1
    Format : AVC
    Format/Info : Advanced Video Codec
    Format profile : [email protected]
    Format settings : CABAC / 1 Ref Frames
    Format settings, CABAC : Yes
    Format settings, Reference frames : 1 frame
    Format settings, GOP : M=1, N=25
    Codec ID : V_MPEG4/ISO/AVC
    Duration : 1 h 42 min
    Bit rate mode : Constant
    Bit rate : 4 000 kb/s
    Width : 1 920 pixels
    Height : 800 pixels
    Display aspect ratio : 2.40:1
    Frame rate mode : Constant
    Frame rate : 29.970 (30000/1001) FPS
    Color space : YUV
    Chroma subsampling : 4:2:0
    Bit depth : 8 bits
    Scan type : Progressive
    Bits/(Pixel*Frame) : 0.087
    Stream size : 2.86 GiB (76%)
    Title : Kung.Fu.League.2018.1080p.BluRay.x264_©GOLD CUP™
    Language : Chinese
    Default : Yes
    Forced : No

    Audio #1
    ID : 2
    Format : AC-3
    Format/Info : Audio Coding 3
    Commercial name : Dolby Digital
    Codec ID : A_AC3
    Duration : 1 h 42 min
    Bit rate mode : Constant
    Bit rate : 640 kb/s
    Channel(s) : 2 channels
    Channel layout : L R
    Sampling rate : 44.1 kHz
    Frame rate : 28.711 FPS (1536 SPF)
    Bit depth : 16 bits
    Compression mode : Lossy
    Stream size : 468 MiB (12%)
    Title : 2.0 AC3 TH 640k 468m_©GOLD CUP™
    Language : Thai
    Service kind : Complete Main
    Default : Yes
    Forced : No

    Audio #2
    ID : 3
    Format : AC-3
    Format/Info : Audio Coding 3
    Commercial name : Dolby Digital
    Codec ID : A_AC3
    Duration : 1 h 42 min
    Bit rate mode : Constant
    Bit rate : 640 kb/s
    Channel(s) : 2 channels
    Channel layout : L R
    Sampling rate : 44.1 kHz
    Frame rate : 28.711 FPS (1536 SPF)
    Bit depth : 16 bits
    Compression mode : Lossy
    Stream size : 468 MiB (12%)
    Title : 2.0 AC3 Chi 640k 468m_©GOLD CUP™
    Language : Chinese
    Service kind : Complete Main
    Default : No
    Forced : No

    Text
    ID : 4
    Format : PGS
    Muxing mode : zlib
    Codec ID : S_HDMV/PGS
    Codec ID/Info : Picture based subtitle format used on BDs/HD-DVDs
    Duration : 1 h 37 min
    Bit rate : 24.0 kb/s
    Count of elements : 3400
    Stream size : 16.7 MiB (0%)
    Title : EN.PGS.white.85-60-10_©GOLD CUP™
    Language : English
    Default : Yes
    Forced : No






    Download: cornfile
    http://cornfile.com/dxfz1a0u47ha
    Download: mekafile
    http://www.mekafile.com/dl.php?f=Gja501c4vwJX

  2. The Following 4 Users Say Thank You to Duckload.us For This Useful Post:

    apichartdear (01-27-2020), bigbang06 (01-27-2020), Jodz14 (01-29-2020), Wesker_TOT (01-26-2020)

  3. #2
    Senior Member
    สมัครเมื่อ
    Dec 2013
    โพสต์
    1,972
    Thanks
    3,894
    Thanked 0 Times in 0 Posts
    ขอบคุณครับ...

  4. #3
    Senior Member
    สมัครเมื่อ
    Jun 2014
    โพสต์
    2,511
    Thanks
    0
    Thanked 0 Times in 0 Posts
    ขอบคุณครับ

+ ตอบกลับกระทู้

ข้อมูลกระทู้

Users Browsing this Thread

ในขณะนี้มี 1 ท่านดูกระทู้อยู่. (0 สมาชิกและ 1 ผู้เยี่ยมชม)

     

กฎการโพสต์ข้อความ

  • ท่าน ไม่สามารถ ตั้งกระทู้ใหม่ได้
  • ท่าน ไม่สามารถ ตอบกระทู้ได้
  • ท่าน ไม่สามารถ แนบไฟล์ได้
  • ท่าน ไม่สามารถ แก้ไขข้อความโพสต์ได้
  • BB code สถานะ เปิด
  • Smilies สถานะ เปิด
  • [IMG] สถานะ เปิด
  • HTML สถานะ ปิด