+ ตอบกลับกระทู้
สรุปผลการค้นหา 1 ถึง 3 จากทั้งหมด 3
  1. #1
    Administrators รูปส่วนตัว Duckload.us
    สมัครเมื่อ
    Dec 2010
    โพสต์
    111,439
    Thanks
    7
    Thanked 116,877 Times in 53,187 Posts

    Question (จีน.ใหม่.ไทยมาสเตอร์)-LEGEND OF THE ANCIENT SWORD (2018) อภินิหารแหวนครองพิภพสยบฟ้า-[WEB-DL.1080p][ Sound:Chi/Thai AC3 2.0:Master][H-SUB:Eng/Chi]



    เรื่องราวจอมยุทธหนุ่มที่โดนวิญญาณที่อยู่ในกระบี่มา รเข้าสิง ทำให้บางครั้งควบคุมตัวเองไม่ได้ และได้ ออกท่องยุทธภพกับเพื่อนๆ โดยหวังว่าจะหาวิธีกำจัดมารที่อยู่ในร่างของเขา

    Format : Matroska
    Format version : Version 4
    File size : 3.87 GiB
    Duration : 1 h 44 min
    Overall bit rate mode : Constant
    Overall bit rate : 5 280 kb/s
    Movie name : Legend.of.the.Ancient.Sword.2018.1080p.WEB-DL_©GOLD CUP™
    Video
    ID : 1
    Format : AVC
    Format/Info : Advanced Video Codec
    Format profile : [email protected]
    Format settings : CABAC / 1 Ref Frames
    Format settings, CABAC : Yes
    Format settings, Reference : 1 frame
    Format settings, GOP : M=1, N=25
    Codec ID : V_MPEG4/ISO/AVC
    Duration : 1 h 44 min
    Bit rate mode : Constant
    Bit rate : 4 000 kb/s
    Width : 1 920 pixels
    Height : 800 pixels
    Display aspect ratio : 2.40:1
    Frame rate mode : Constant
    Frame rate : 29.970 (30000/1001) FPS
    Color space : YUV
    Chroma subsampling : 4:2:0
    Bit depth : 8 bits
    Scan type : Progressive
    Bits/(Pixel*Frame) : 0.087
    Stream size : 2.93 GiB (76%)
    Title : Legend.of.the.Ancient.Sword.2018.1080p.WEB-DL_©GOLD CUP™
    Language : Chinese
    Default : Yes
    Forced : No

    Audio #1
    ID : 2
    Format : AC-3
    Format/Info : Audio Coding 3
    Commercial name : Dolby Digital
    Codec ID : A_AC3
    Duration : 1 h 44 min
    Bit rate mode : Constant
    Bit rate : 640 kb/s
    Channel(s) : 2 channels
    Channel layout : L R
    Sampling rate : 44.1 kHz
    Frame rate : 28.711 FPS (1536 SPF)
    Compression mode : Lossy
    Stream size : 481 MiB (12%)
    Title : 2.0 AC3 TH 640k 480m_©GOLD CUP™
    Language : Thai
    Service kind : Complete Main
    Default : Yes
    Forced : No

    Audio #2
    ID : 3
    Format : AC-3
    Format/Info : Audio Coding 3
    Commercial name : Dolby Digital
    Codec ID : A_AC3
    Duration : 1 h 44 min
    Bit rate mode : Constant
    Bit rate : 640 kb/s
    Channel(s) : 2 channels
    Channel layout : L R
    Sampling rate : 44.1 kHz
    Frame rate : 28.711 FPS (1536 SPF)
    Compression mode : Lossy
    Stream size : 481 MiB (12%)
    Title : 2.0 AC3 Chi 640k 480m_©GOLD CUP™
    Language : Chinese
    Service kind : Complete Main
    Default : No
    Forced : No





    Download: cornfile
    http://cornfile.com/c2tne1gvht6x
    Download: mekafile
    รอ..อัพ...**ระบบล่ม***

  2. The Following 4 Users Say Thank You to Duckload.us For This Useful Post:

    apichartdear (01-28-2020), Jodz14 (01-29-2020), noi54 (01-28-2020), Wesker_TOT (01-29-2020)

  3. #2
    Senior Member
    สมัครเมื่อ
    Jun 2014
    โพสต์
    2,638
    Thanks
    0
    Thanked 0 Times in 0 Posts
    ขอบคุณครับ

  4. #3
    Senior Member
    สมัครเมื่อ
    Dec 2013
    โพสต์
    2,005
    Thanks
    3,921
    Thanked 0 Times in 0 Posts
    ขอบคุณนะครับ...

+ ตอบกลับกระทู้

ข้อมูลกระทู้

Users Browsing this Thread

ในขณะนี้มี 1 ท่านดูกระทู้อยู่. (0 สมาชิกและ 1 ผู้เยี่ยมชม)

     

กฎการโพสต์ข้อความ

  • ท่าน ไม่สามารถ ตั้งกระทู้ใหม่ได้
  • ท่าน ไม่สามารถ ตอบกระทู้ได้
  • ท่าน ไม่สามารถ แนบไฟล์ได้
  • ท่าน ไม่สามารถ แก้ไขข้อความโพสต์ได้
  • BB code สถานะ เปิด
  • Smilies สถานะ เปิด
  • [IMG] สถานะ เปิด
  • HTML สถานะ ปิด