+ ตอบกลับกระทู้
สรุปผลการค้นหา 1 ถึง 3 จากทั้งหมด 3
  1. #1
    Administrators รูปส่วนตัว Duckload.us
    สมัครเมื่อ
    Dec 2010
    โพสต์
    118,760
    Thanks
    7
    Thanked 124,731 Times in 55,831 Posts

    Angry [จีน]-หนังใหม่ Kung Fu Monster (2018) [1080p.BluRay.x264][พากย์ไทยมาสเตอร์ เท่านั้น]-Mr.John



    KUNG FU MONSTER (2019) พากย์ไทย
    ภายในบรูไนที่ยืดเยื้อเป็นเวลานานของประเพณีราชวงศ์ห มิงประเทศบรูไนก็มอบสัตว์ประหลาดให้แก่ประเทศเพื่อเป ็นพร “Kung Fu Monster” ทะเลซึ่งเป็นส่วนหนึ่งของตำรวจลึกลับมาเจสติกได้รับค วามไว้วางใจให้เชื่องแมมมอ ธ แม้จะมีความจริงที่ว่าแมมมอ ธ ที่มีขนดกปรากฏขึ้นอย่างดุเดือดอยู่ด้านนอกทะเลพบว่า มันเป็นธรรมชาติ ไม่จำเป็นต้องเปลี่ยนสัตว์ประหลาดให้กลายเป็นเครื่อง จักรสังหารในแนวหน้าทะเลก็ปล่อยแมมมอ ธ ออกมาอย่างดุเดือดและวิ่งออกไปพร้อมกับความเย็นหญิงส าวของชายคนหนึ่งถูกประหารชีวิตในข้อหาผิดกฎหมายในช่ว งการปกครองของจักรพรรดิหลี่ลี่
    Yehe ผู้ดูแลคลังสินค้าตะวันออกได้รับการร้องขอให้จับสิ่ง มีชีวิตที่ห่างไกลจากที่ประทับของราชวงศ์ ในเวลาเดียวกันนักรบแห่งกองทัพเจินเจียนสมรู้ร่วมคิด กับการแสดงออกทางทหารของเขาจูเนียร์เจียวเจียวและนัก รบหญิงเล้งปิงปิงได้รวมตัวกันเป็นกลุ่มนักรบป่าเพื่อ ชนะเงินจากหน่วยงานที่เสื่อมโทรม ไม่ว่าในกรณีใดเงินหายไปในขณะที่อาชญากร Feng Sihai ต้องการปรากฏตัวทางด้าน Jianghu คนพเนจร Wu Bai เมื่อมีเหตุฉุกเฉินเกิดขึ้นสิ่งมีชีวิต

    Format : Matroska
    Format version : Version 4
    File size : 8.20 GiB
    Duration : 1 h 43 min
    Overall bit rate : 11.3 Mb/s
    Movie name : Modified : Mr.John
    Encoded date : UTC 2020-02-07 09:55:26
    Writing application : mkvmerge v35.0.0 ('All The Love In The World') 64-bit
    Writing library : libebml v1.3.9 + libmatroska v1.5.2

    Video
    ID : 1
    Format : AVC
    Format/Info : Advanced Video Codec
    Format profile : [email protected]
    Format settings : CABAC / 5 Ref Frames
    Format settings, CABAC : Yes
    Format settings, Reference : 5 frames
    Codec ID : V_MPEG4/ISO/AVC
    Duration : 1 h 43 min
    Bit rate : 11.1 Mb/s
    Width : 1 920 pixels
    Height : 804 pixels
    Display aspect ratio : 2.40:1
    Frame rate mode : Constant
    Frame rate : 24.000 FPS
    Color space : YUV
    Chroma subsampling : 4:2:0
    Bit depth : 8 bits
    Scan type : Progressive
    Bits/(Pixel*Frame) : 0.301
    Stream size : 8.06 GiB (98%)
    Title : Modified : Mr.John
    Writing library : x264 core 129 r2245 bc13772
    Encoding settings : cabac=1 / ref=5 / deblock=1:-3:-3 / analyse=0x3:0x133 / me=umh / subme=11 / psy=1 / psy_rd=1.05:0.05 / mixed_ref=1 / me_range=64 / chroma_me=1 / trellis=2 / 8x8dct=1 / cqm=0 / deadzone=21,11 / fast_pskip=0 / chroma_qp_offset=-3 / threads=12 / lookahead_threads=2 / sliced_threads=0 / nr=0 / decimate=1 / interlaced=0 / bluray_compat=0 / constrained_intra=0 / bframes=8 / b_pyramid=2 / b_adapt=2 / b_bias=0 / direct=3 / weightb=1 / open_gop=0 / weightp=2 / keyint=250 / keyint_min=24 / scenecut=40 / intra_refresh=0 / rc_lookahead=60 / rc=2pass / mbtree=1 / bitrate=11136 / ratetol=1.0 / qcomp=0.60 / qpmin=0 / qpmax=69 / qpstep=4 / cplxblur=20.0 / qblur=0.5 / vbv_maxrate=40000 / vbv_bufsize=30000 / nal_hrd=none / ip_ratio=1.40 / aq=1:0.80
    Language : English
    Default : Yes
    Forced : No

    Audio
    ID : 2
    Format : AC-3
    Format/Info : Audio Coding 3
    Commercial name : Dolby Digital
    Codec ID : A_AC3
    Duration : 1 h 43 min
    Bit rate mode : Constant
    Bit rate : 192 kb/s
    Channel(s) : 2 channels
    Channel layout : L R
    Sampling rate : 48.0 kHz
    Frame rate : 31.250 FPS (1536 SPF)
    Compression mode : Lossy
    Stream size : 142 MiB (2%)
    Title : THM : Mr.John
    Language : Thai
    Service kind : Complete Main
    Default : Yes
    Forced : No





    8.20 GB
    http://cornfile.com/ba14g97r88bw
    1.1 GB
    http://cornfile.com/5cchefg1guw7
    3.6 GB
    http://cornfile.com/8ma49i25ddw0

  2. The Following 3 Users Say Thank You to Duckload.us For This Useful Post:

    apichartdear (02-13-2020), NaiWan (02-14-2020), spiderpud2 (02-23-2020)

  3. #2
    Senior Member
    สมัครเมื่อ
    Oct 2013
    โพสต์
    1,758
    Thanks
    0
    Thanked 0 Times in 0 Posts
    ขอบคุณครับ

  4. #3
    Senior Member
    สมัครเมื่อ
    Jun 2014
    โพสต์
    4,621
    Thanks
    0
    Thanked 0 Times in 0 Posts
    ขอบคุณครับ

+ ตอบกลับกระทู้

ข้อมูลกระทู้

Users Browsing this Thread

ในขณะนี้มี 1 ท่านดูกระทู้อยู่. (0 สมาชิกและ 1 ผู้เยี่ยมชม)

     

กฎการโพสต์ข้อความ

  • ท่าน ไม่สามารถ ตั้งกระทู้ใหม่ได้
  • ท่าน ไม่สามารถ ตอบกระทู้ได้
  • ท่าน ไม่สามารถ แนบไฟล์ได้
  • ท่าน ไม่สามารถ แก้ไขข้อความโพสต์ได้
  • BB code สถานะ เปิด
  • Smilies สถานะ เปิด
  • [IMG] สถานะ เปิด
  • HTML สถานะ ปิด