+ ตอบกลับกระทู้
สรุปผลการค้นหา 1 ถึง 3 จากทั้งหมด 3
  1. #1
    Administrators รูปส่วนตัว Duckload.us
    สมัครเมื่อ
    Dec 2010
    โพสต์
    111,366
    Thanks
    7
    Thanked 116,805 Times in 53,167 Posts

    Angry [จีน]-หนังใหม่ The Prey (2018) : เกมคนรวย [1080p.AMZN.WEB-DL.DDP5.1.H.264][พากย์ไทยมาสเตอร์ + เสียงจีน E-AC3 5.1][บรรยายไทยมาสเตอร์ + อังกฤษ]



    ตำรวจจากประเทศจีนเค้าเป็นสายลับที่ชื่อว่าซิน เค้ากำลังปฏิบัติภารกิจลับระหว่างประเทศเมื่อการจู่โ จมทำให้เขาถูกจำคุกในป่าห่างไกลที่เล่นตามกฎของตัวเอ ง ที่นี่ผู้เข้าชมเป็นผู้แสวงหาความตื่นเต้นที่ร่ำรวย ทหารยามเป็นผู้เชี่ยวชาญหุ่นเชิด และนักโทษเป็นเพียงเบี้ยในเกมเดิมพันสูงของมนุษย์ล่า สัตว์ มันเริ่มต้นอีกวันที่เลวร้ายสำหรับตำรวจผู้ทำดี วันนั้นแย่ลงมากเมื่อผู้คุมโหดร้ายซินซินออกมาเพื่อค วามตายด้วยมือของนักล่าผู้มั่งคั่งที่กำลังมองหาการฆ ่าขั้นสุดท้ายของโลก หลังจากหลายปีของการตามล่าอาชญากรผู้โหดเหี้ยมซินก็พ บว่าตัวเองกำลังวิ่งหนีเพื่อชีวิต ถ้าซินจัดการเพื่อเอาชีวิตรอดในเกมซาดิสม์นี้เขาจะเด ินออกจากป่าในแบบเดียวกับที่เขาเข้ามา: ในฐานะชายอิสระ ถ้าซินล้มเหลวเขาเป็นเนื้อตาย – และเป็นเพียงถ้วยรางวัลการล่าสัตว์อีกตัวหนึ่ง


    Format : Matroska
    Format version : Version 4
    File size : 5.78 GiB
    Duration : 1 h 33 min
    Overall bit rate : 8 867 kb/s
    Movie name : Modified : Mr.John

    Video
    ID : 1
    Format : AVC
    Format/Info : Advanced Video Codec
    Format profile : [email protected]
    Format settings : CABAC / 4 Ref Frames
    Format settings, CABAC : Yes
    Format settings, Reference : 4 frames
    Codec ID : V_MPEG4/ISO/AVC
    Duration : 1 h 33 min
    Bit rate mode : Constant
    Bit rate : 8 027 kb/s
    Nominal bit rate : 10 000 kb/s
    Width : 1 920 pixels
    Height : 872 pixels
    Display aspect ratio : 2.2:1
    Original display aspect rat : 2.2:1
    Frame rate mode : Constant
    Frame rate : 24.000 FPS
    Color space : YUV
    Chroma subsampling : 4:2:0
    Bit depth : 8 bits
    Scan type : Progressive
    Bits/(Pixel*Frame) : 0.200
    Stream size : 5.23 GiB (91%)
    Title : Modified : Mr.John
    Language : English
    Default : Yes
    Forced : No
    Color range : Limited
    Color primaries : BT.709
    Transfer characteristics : BT.709
    Matrix coefficients : BT.709

    Audio #1
    ID : 2
    Format : AC-3
    Format/Info : Audio Coding 3
    Commercial name : Dolby Digital
    Codec ID : A_AC3
    Duration : 1 h 33 min
    Bit rate mode : Constant
    Bit rate : 192 kb/s
    Channel(s) : 2 channels
    Channel layout : L R
    Sampling rate : 48.0 kHz
    Frame rate : 31.250 FPS (1536 SPF)
    Compression mode : Lossy
    Stream size : 128 MiB (2%)
    Title : THM : Mr.John
    Language : Thai
    Service kind : Complete Main
    Default : No
    Forced : No

    Audio #2
    ID : 3
    Format : E-AC-3
    Format/Info : Enhanced AC-3
    Commercial name : Dolby Digital Plus
    Codec ID : A_EAC3
    Duration : 1 h 33 min
    Bit rate mode : Constant
    Bit rate : 640 kb/s
    Channel(s) : 6 channels
    Channel layout : L R C LFE Ls Rs
    Sampling rate : 48.0 kHz
    Frame rate : 31.250 FPS (1536 SPF)
    Compression mode : Lossy
    Stream size : 427 MiB (7%)
    Title : Chinese EAC3 5.1
    Language : Chinese
    Service kind : Complete Main
    Default : Yes
    Forced : No

    Text #1
    ID : 4
    Format : PGS
    Muxing mode : zlib
    Codec ID : S_HDMV/PGS
    Codec ID/Info : Picture based subtitle format used on BDs/HD-DVDs
    Duration : 1 h 27 min
    Bit rate : 13.8 kb/s
    Count of elements : 1218
    Stream size : 8.62 MiB (0%)
    Title : TH 1080p
    Language : Thai
    Default : Yes
    Forced : No

    Text #2
    ID : 5
    Format : UTF-8
    Codec ID : S_TEXT/UTF8
    Codec ID/Info : UTF-8 Plain Text
    Duration : 1 h 23 min
    Bit rate : 20 b/s
    Count of elements : 592
    Stream size : 12.6 KiB (0%)
    Title : Eng
    Language : English
    Default : No
    Forced : No





    http://cornfile.com/f1xifxfnkf65

  2. The Following 3 Users Say Thank You to Duckload.us For This Useful Post:

    apichartdear (02-13-2020), Jodz14 (02-14-2020), Wesker_TOT (02-14-2020)

  3. #2
    Senior Member
    สมัครเมื่อ
    Oct 2013
    โพสต์
    1,644
    Thanks
    0
    Thanked 0 Times in 0 Posts
    ขอบคุณครับ

  4. #3
    Senior Member
    สมัครเมื่อ
    Dec 2013
    โพสต์
    2,000
    Thanks
    3,917
    Thanked 0 Times in 0 Posts
    ขอบคุณนะครับ...

+ ตอบกลับกระทู้

ข้อมูลกระทู้

Users Browsing this Thread

ในขณะนี้มี 1 ท่านดูกระทู้อยู่. (0 สมาชิกและ 1 ผู้เยี่ยมชม)

     

กฎการโพสต์ข้อความ

  • ท่าน ไม่สามารถ ตั้งกระทู้ใหม่ได้
  • ท่าน ไม่สามารถ ตอบกระทู้ได้
  • ท่าน ไม่สามารถ แนบไฟล์ได้
  • ท่าน ไม่สามารถ แก้ไขข้อความโพสต์ได้
  • BB code สถานะ เปิด
  • Smilies สถานะ เปิด
  • [IMG] สถานะ เปิด
  • HTML สถานะ ปิด