+ ตอบกลับกระทู้
สรุปผลการค้นหา 1 ถึง 1 จากทั้งหมด 1
  1. #1
    Administrators รูปส่วนตัว Duckload.us
    สมัครเมื่อ
    Dec 2010
    โพสต์
    118,760
    Thanks
    7
    Thanked 124,732 Times in 55,831 Posts

    Angry [เกาหลี]-หนังใหม่ The Soul-Mate (2019) : คนกับผี คู่เเสบแบบว่าป่วง [1080p.FHDRip.x264][พากย์ไทยมาสเตอร์ + เสียงเกาหลี 2.0][บรรยายไทยมาสเตอร์]



    Tae-jin เจ้าหน้าที่ลาดตระเวนประสบอุบัติเหตุขณะสอบสวนคดีและ วิญญาณของเขาถูกแยกออกจากร่างกายของเขา เขาหมดหวังที่จะแก้ปัญหาและกลับไปหาแฟนที่รักของเขา แต่เมื่อถึงจุดสิ้นสุดของเขาก็เป็นวิญญาณที่หลงทาง แทจินค้นพบใครบางคนที่สามารถเห็นเขาได้โดยไม่คาดคิด แต่ก็ไม่ใช่ใครอื่นนอกจากอาร์คชูและเพื่อนบ้านจางกู่ ผู้บริหารสตูดิโอยูโด

    Format : Matroska
    Format version : Version 4
    File size : 3.83 GiB
    Duration : 1 h 36 min
    Overall bit rate : 5 653 kb/s
    Movie name : Modified : Mr.John

    Video
    ID : 1
    Format : AVC
    Format/Info : Advanced Video Codec
    Format profile : [email protected]
    Format settings : CABAC / 4 Ref Frames
    Format settings, CABAC : Yes
    Format settings, Reference : 4 frames
    Format settings, GOP : M=4, N=23
    Codec ID : V_MPEG4/ISO/AVC
    Duration : 1 h 36 min
    Bit rate : 5 120 kb/s
    Width : 1 920 pixels
    Height : 1 080 pixels
    Display aspect ratio : 16:9
    Frame rate mode : Constant
    Frame rate : 24.000 FPS
    Color space : YUV
    Chroma subsampling : 4:2:0
    Bit depth : 8 bits
    Scan type : Progressive
    Bits/(Pixel*Frame) : 0.103
    Stream size : 3.47 GiB (91%)
    Title : Modified : Mr.John
    Writing library : x264 core 148 r2768 d32d7bf
    Encoding settings : cabac=1 / ref=3 / deblock=1:0:0 / analyse=0x3:0x113 / me=hex / subme=8 / psy=1 / psy_rd=1.00:0.00 / mixed_ref=1 / me_range=16 / chroma_me=1 / trellis=2 / 8x8dct=1 / cqm=0 / deadzone=21,11 / fast_pskip=1 / chroma_qp_offset=-2 / threads=24 / lookahead_threads=4 / sliced_threads=0 / nr=0 / decimate=1 / interlaced=0 / bluray_compat=0 / stitchable=1 / constrained_intra=0 / bframes=3 / b_pyramid=2 / b_adapt=1 / b_bias=0 / direct=3 / weightb=1 / open_gop=0 / weightp=2 / keyint=23 / keyint_min=12 / scenecut=40 / intra_refresh=0 / rc_lookahead=23 / rc=2pass / mbtree=1 / bitrate=5120 / ratetol=1.0 / qcomp=0.60 / qpmin=0 / qpmax=69 / qpstep=4 / cplxblur=20.0 / qblur=0.5 / ip_ratio=1.40 / aq=1:1.00
    Default : Yes
    Forced : No

    Audio #1
    ID : 2
    Format : AC-3
    Format/Info : Audio Coding 3
    Commercial name : Dolby Digital
    Codec ID : A_AC3
    Duration : 1 h 36 min
    Bit rate mode : Constant
    Bit rate : 192 kb/s
    Channel(s) : 2 channels
    Channel layout : L R
    Sampling rate : 48.0 kHz
    Frame rate : 31.250 FPS (1536 SPF)
    Compression mode : Lossy
    Stream size : 133 MiB (3%)
    Title : THM : Mr.John
    Language : Thai
    Service kind : Complete Main
    Default : Yes
    Forced : No

    Audio #2
    ID : 3
    Format : AAC LC
    Format/Info : Advanced Audio Codec Low Complexity
    Codec ID : A_AAC-2
    Duration : 1 h 36 min
    Bit rate : 320 kb/s
    Channel(s) : 2 channels
    Channel layout : L R
    Sampling rate : 48.0 kHz
    Frame rate : 46.875 FPS (1024 SPF)
    Compression mode : Lossy
    Stream size : 222 MiB (6%)
    Language : Korean
    Default : No
    Forced : No

    Text
    ID : 4
    Format : PGS
    Muxing mode : zlib
    Codec ID : S_HDMV/PGS
    Codec ID/Info : Picture based subtitle format used on BDs/HD-DVDs
    Duration : 1 h 34 min
    Bit rate : 27.7 kb/s
    Count of elements : 2558
    Stream size : 18.8 MiB (0%)
    Title : TH 1080p PGS
    Language : Thai
    Default : Yes
    Forced : No





    3.8 GB
    http://cornfile.com/jds6gwczbd3r
    3.3 GB
    http://cornfile.com/0rt9ffbfu6j1

  2. The Following User Says Thank You to Duckload.us For This Useful Post:

    Jodz14 (02-14-2020)

+ ตอบกลับกระทู้

ข้อมูลกระทู้

Users Browsing this Thread

ในขณะนี้มี 1 ท่านดูกระทู้อยู่. (0 สมาชิกและ 1 ผู้เยี่ยมชม)

     

กฎการโพสต์ข้อความ

  • ท่าน ไม่สามารถ ตั้งกระทู้ใหม่ได้
  • ท่าน ไม่สามารถ ตอบกระทู้ได้
  • ท่าน ไม่สามารถ แนบไฟล์ได้
  • ท่าน ไม่สามารถ แก้ไขข้อความโพสต์ได้
  • BB code สถานะ เปิด
  • Smilies สถานะ เปิด
  • [IMG] สถานะ เปิด
  • HTML สถานะ ปิด