+ ตอบกลับกระทู้
สรุปผลการค้นหา 1 ถึง 1 จากทั้งหมด 1
  1. #1
    Administrators รูปส่วนตัว Duckload.us
    สมัครเมื่อ
    Dec 2010
    โพสต์
    111,366
    Thanks
    7
    Thanked 116,807 Times in 53,167 Posts

    Angry 21 BRIDGES (2019) เผด็จศึกยึดนิวยอร์ก-720p (เสียงไทยมาสเตอร์)



    ผลงานจาก แอนโทนี และ โจ รุสโซ่ ผู้สร้างผลงานอย่าง Avengers: Infinity War และ Avengers: Endgame กลับมาสู่จอภาพยนตร์อีกครั้งกับภาพยนตร์เรื่อง 21 Bridges ที่ได้นักแสดงอย่าง แชดวิก โบสแมน ที่เคยรับบท แบล็คแพนเธอร์ มารับบทตำรวจนิวยอร์คหนุ่มไฟแรง "อังเดร เดวิส" ที่เมื่อเกิดเหตุฆาตกรรมตำรวจขึ้นโดยคนร้ายสองคน อังเดร มีเวลา 24 ชั่วโมง เพื่อตามล่าคนร้ายในคดีอุกฉกรรจ์นี้ และการที่จะไม่ให้ผู้ร้ายหลบหนีไปได้ อังเดรสั่งการปิดเกาะแมนฮัตตันลงทั้งเกาะ ซึ่งรวมไปถึงสะพาน 21 จุด แม่น้ำ 3 สาย อุโมงค์ อีก 4 จุด และหยุดขบวนรถทุกประเภทเข้าออกจากเกาะ แล้วส่งนายตำรวจเข้าไปปฏิบัติการไล่ล่าความเดือดระอุ ครั้งนี้ หมวดหมู่ : อาชญากรรม / ชีวิต / ระทึกขวัญ ผู้กำกับ : ไบรอัน เคิร์ก นักแสดง : แชดวิก โบสแมน, เทย์เลอร์ คิตช์, เซียนนา มิลเลอร์ เข้าฉาย : 28 พฤศจิกายน 2019

    Format : MPEG-4
    Format profile : Base Media
    Codec ID : isom (isom/iso2/avc1/mp41)
    File size : 820 MiB
    Duration : 1 h 39 min
    Overall bit rate : 1 153 kb/s
    Writing application : Lavf58.26.101

    Video
    ID : 1
    Format : AVC
    Format/Info : Advanced Video Codec
    Format profile : [email protected]
    Format settings : CABAC / 4 Ref Frames
    Format settings, CABAC : Yes
    Format settings, Reference frames : 4 frames
    Codec ID : avc1
    Codec ID/Info : Advanced Video Coding
    Duration : 1 h 39 min
    Bit rate : 1 020 kb/s
    Width : 1 280 pixels
    Height : 536 pixels
    Display aspect ratio : 2.40:1
    Frame rate mode : Constant
    Frame rate : 23.976 (23976/1000) FPS
    Color space : YUV
    Chroma subsampling : 4:2:0
    Bit depth : 8 bits
    Scan type : Progressive
    Bits/(Pixel*Frame) : 0.062
    Stream size : 725 MiB (88%)
    Title : ISO Media file produced by Google Inc. Created on: 02/08/2020.
    Writing library : x264 core 157
    Encoding settings : cabac=1 / ref=1 / deblock=1:0:0 / analyse=0x3:0x3 / me=dia / subme=1 / psy=1 / psy_rd=1.00:0.00 / mixed_ref=0 / me_range=16 / chroma_me=1 / trellis=0 / 8x8dct=1 / cqm=0 / deadzone=21,11 / fast_pskip=1 / chroma_qp_offset=0 / threads=15 / lookahead_threads=2 / sliced_threads=0 / nr=0 / decimate=1 / interlaced=0 / bluray_compat=0 / constrained_intra=0 / bframes=3 / b_pyramid=2 / b_adapt=1 / b_bias=0 / direct=1 / weightb=1 / open_gop=0 / weightp=1 / keyint=250 / keyint_min=23 / scenecut=40 / intra_refresh=0 / rc=2pass / mbtree=0 / bitrate=1020 / ratetol=1.0 / qcomp=0.60 / qpmin=0 / qpmax=69 / qpstep=4 / cplxblur=20.0 / qblur=0.5 / ip_ratio=1.40 / pb_ratio=1.30 / aq=1:1.00
    Codec configuration box : avcC

    Audio
    ID : 2
    Format : AAC LC
    Format/Info : Advanced Audio Codec Low Complexity
    Codec ID : mp4a-40-2
    Duration : 1 h 39 min
    Duration_LastFrame : -9 ms
    Bit rate mode : Constant
    Bit rate : 128 kb/s
    Channel(s) : 2 channels
    Channel layout : L R
    Sampling rate : 48.0 kHz
    Frame rate : 46.875 FPS (1024 SPF)
    Compression mode : Lossy
    Stream size : 91.0 MiB (11%)
    Title : ISO Media file produced by Google Inc. Created on: 02/08/2020.
    Default : Yes
    Alternate group : 1




    http://cornfile.com/697e5gjkezly

  2. The Following User Says Thank You to Duckload.us For This Useful Post:

    apichartdear (02-14-2020)

+ ตอบกลับกระทู้

ข้อมูลกระทู้

Users Browsing this Thread

ในขณะนี้มี 1 ท่านดูกระทู้อยู่. (0 สมาชิกและ 1 ผู้เยี่ยมชม)

     

กฎการโพสต์ข้อความ

  • ท่าน ไม่สามารถ ตั้งกระทู้ใหม่ได้
  • ท่าน ไม่สามารถ ตอบกระทู้ได้
  • ท่าน ไม่สามารถ แนบไฟล์ได้
  • ท่าน ไม่สามารถ แก้ไขข้อความโพสต์ได้
  • BB code สถานะ เปิด
  • Smilies สถานะ เปิด
  • [IMG] สถานะ เปิด
  • HTML สถานะ ปิด