+ ตอบกลับกระทู้
สรุปผลการค้นหา 1 ถึง 3 จากทั้งหมด 3
  1. #1
    Administrators รูปส่วนตัว Duckload.us
    สมัครเมื่อ
    Dec 2010
    โพสต์
    111,366
    Thanks
    7
    Thanked 116,807 Times in 53,167 Posts

    Question Ip Man 4 The Finale 2019 [พากย์:จีน][SUB:ซับไทยแปล ][1080p]+[THR]



    Ip Man 4 The Finale ที่สนามกีฬาในเมืองซานฟรานซิสโก ผู้ชมกำลังส่งเสียงปรบมือให้กับบรูซลี ที่กำลังโชว์ การสาธิตศิลปะการต่อสู้ของจีน ยิปมันนั่งอยู่ในกลุ่มผู้ชมและชื่นชมลูกศิษย์เบอร์หน ึ่งของเขา การมาอเมริกาครั้งนี้ของยิป มันไม่ใช่แค่มาเยี่ยม บรูซลี แต่คือการหาโรงเรียนให้ลูกชายคนเดียวของเขา เพื่อให้ลูกชายได้เปิดโลกกว้าง ยิปมันรู้ดีว่าช่วงเวลาสงบสุขแบบนี้เป็นแค่ภาพลวงตา เพราะที่นี่ยังมีการเลือกปฏิบัติทางเชื้อชาติที่หยั่ งรากลึก และสถานการณ์จริงมันเลวร้ายยิ่งกว่าที่เขาคิดไว้ เมื่อมาอยู่ไกลบ้านเกิด เขาจึงเป็นห่วงและอยากพูดคุยกับลูกชาย แต่ทุกครั้งที่เขาโทรกลับบ้าน ลูกชายของเขาปฏิเสธที่จะรับสาย ความเหงาที่ยิปมันมี บวกกับอาการไอที่แย่ลงเรื่อยๆ ของเขา

    หลังจากเขาถูกวินิจฉัยว่าเขาเป็นโรคมะเร็ง เขาจึงต้องเตรียมตัวสำหรับอนาคต โดยเฉพาะสำหรับลูกชาย แต่ดินแดนที่เขาเคยฝันถึงแห่งนี้ไม่เหมือนที่เขาคิด ความแตกต่างทางวัฒนธรรม ความแตกต่างทางวัย และความรู้สึก ยิปมันหลงเข้าไปในกลางผู้เชี่ยวชาญศิลปะการต่อสู้ฝั่ งจีนและฝั่งตะวันตก หลายคนได้รับบาดเจ็บสาหัส จากการลงมือโดย บาร์ตัน เจ้าหน้าที่ตำรวจอเมริกัน

    ทำให้ยิปมันต้องหันมาถามจุดยืนตัวเอง และถามตัวเองอีกครั้งว่าทำไมเขาถึงรักศิลปะการต่อสู้ และเขาตัดสินใจท้าดวลกับบาร์ตันในฐานะ ผู้เชี่ยวชาญศิลปะการต่อสู้แบบจีน การประลองครั้งสุดท้ายระหว่างตะวันออกและตะวันตกกำลั งจะเริ่มขึ้น และมันจะเป็นการต่อสู้เพื่อศักดิ์ศรีของวัฒนธรรมจีน เปลี่ยนความคิดต่อประเทศที่ทุกคนฝันถึงตลอดไป!

    Format : Matroska
    Format version : Version 4
    File size : 4.26 GiB
    Duration : 1 h 46 min
    Overall bit rate : 5 706 kb/s
    Encoded date : UTC 2020-02-13 04:25:02
    Writing application : mkvmerge v42.0.0 ('Overtime') 64-bit
    Writing library : libebml v1.3.10 + libmatroska v1.5.2

    Video
    ID : 2
    Format : AVC
    Format/Info : Advanced Video Codec
    Format profile : [email protected]
    Format settings : CABAC / 4 Ref Frames
    Format settings, CABAC : Yes
    Format settings, Reference frames : 4 frames
    Codec ID : V_MPEG4/ISO/AVC
    Duration : 1 h 46 min
    Bit rate : 5 500 kb/s
    Width : 1 920 pixels
    Height : 858 pixels
    Display aspect ratio : 2.25:1
    Frame rate mode : Constant
    Frame rate : 24.000 FPS
    Color space : YUV
    Chroma subsampling : 4:2:0
    Bit depth : 8 bits
    Scan type : Progressive
    Bits/(Pixel*Frame) : 0.139
    Stream size : 4.02 GiB (94%)
    Writing library : x264 core 148 r2748 97eaef2
    Encoding settings : cabac=1 / ref=4 / deblock=1:0:0 / analyse=0x3:0x113 / me=umh / subme=9 / psy=1 / psy_rd=1.00:0.00 / mixed_ref=1 / me_range=16 / chroma_me=1 / trellis=2 / 8x8dct=1 / cqm=0 / deadzone=21,11 / fast_pskip=1 / chroma_qp_offset=-2 / threads=72 / lookahead_threads=6 / sliced_threads=0 / nr=0 / decimate=1 / interlaced=0 / bluray_compat=0 / constrained_intra=0 / bframes=3 / b_pyramid=2 / b_adapt=2 / b_bias=0 / direct=3 / weightb=1 / open_gop=0 / weightp=2 / keyint=250 / keyint_min=24 / scenecut=40 / intra_refresh=0 / rc_lookahead=50 / rc=abr / mbtree=1 / bitrate=5500 / ratetol=1.0 / qcomp=0.60 / qpmin=0 / qpmax=69 / qpstep=4 / ip_ratio=1.40 / aq=1:1.00
    Default : Yes
    Forced : No

    Audio #1
    ID : 1
    Format : AC-3
    Format/Info : Audio Coding 3
    Commercial name : Dolby Digital
    Codec ID : A_AC3
    Duration : 1 h 46 min
    Bit rate mode : Constant
    Bit rate : 192 kb/s
    Channel(s) : 2 channels
    Channel layout : L R
    Sampling rate : 48.0 kHz
    Frame rate : 31.250 FPS (1536 SPF)
    Bit depth : 16 bits
    Compression mode : Lossy
    Delay relative to video : -126 ms
    Stream size : 147 MiB (3%)
    Language : Chinese
    Service kind : Complete Main
    Default : Yes
    Forced : No

    Audio #2
    ID : 3
    Format : AAC LC
    Format/Info : Advanced Audio Codec Low Complexity
    Codec ID : A_AAC-2
    Duration : 1 h 46 min
    Bit rate : 128 kb/s
    Channel(s) : 2 channels
    Channel layout : L R
    Sampling rate : 48.0 kHz
    Frame rate : 46.875 FPS (1024 SPF)
    Compression mode : Lossy
    Delay relative to video : -126 ms
    Stream size : 98.0 MiB (2%)
    Language : Chinese
    Default : No
    Forced : No

    Text
    ID : 4
    Format : PGS
    Muxing mode : zlib
    Codec ID : S_HDMV/PGS
    Codec ID/Info : Picture based subtitle format used on BDs/HD-DVDs
    Duration : 1 h 41 min
    Bit rate : 27.3 kb/s
    Count of elements : 2354
    Stream size : 19.8 MiB (0%)
    Language : Thai
    Default : Yes
    Forced : No






    1080p+SUB:TH by samecm
    http://cornfile.com/5ik43q82vbd2
    1080p+THR
    3.4 GB
    http://cornfile.com/vufgh83tkwui
    5.0 GB
    http://cornfile.com/62q8ct012pea

    Ip.Man.4.2019.1080p.WEB-DL.THR.2.0.H...tHts.part1.rar
    http://www.mekafile.com/dl.php?f=Z4b84ac5ptzX
    Ip.Man.4.2019.1080p.WEB-DL.THR.2.0.H...tHts.part2.rar
    http://www.mekafile.com/dl.php?f=3X6a08c5ptSm

  2. The Following 2 Users Say Thank You to Duckload.us For This Useful Post:

    amorn wichian (02-17-2020), roc_dave (02-13-2020)

  3. #2
    Senior Member
    สมัครเมื่อ
    Oct 2013
    โพสต์
    1,644
    Thanks
    0
    Thanked 0 Times in 0 Posts
    ขอบคุณครับ

  4. #3
    Senior Member
    สมัครเมื่อ
    Jun 2014
    โพสต์
    2,612
    Thanks
    0
    Thanked 0 Times in 0 Posts
    ขอบคุณครับ

+ ตอบกลับกระทู้

ข้อมูลกระทู้

Users Browsing this Thread

ในขณะนี้มี 1 ท่านดูกระทู้อยู่. (0 สมาชิกและ 1 ผู้เยี่ยมชม)

     

กฎการโพสต์ข้อความ

  • ท่าน ไม่สามารถ ตั้งกระทู้ใหม่ได้
  • ท่าน ไม่สามารถ ตอบกระทู้ได้
  • ท่าน ไม่สามารถ แนบไฟล์ได้
  • ท่าน ไม่สามารถ แก้ไขข้อความโพสต์ได้
  • BB code สถานะ เปิด
  • Smilies สถานะ เปิด
  • [IMG] สถานะ เปิด
  • HTML สถานะ ปิด