+ ตอบกลับกระทู้
สรุปผลการค้นหา 1 ถึง 2 จากทั้งหมด 2
  1. #1
    Administrators รูปส่วนตัว Duckload.us
    สมัครเมื่อ
    Dec 2010
    โพสต์
    111,366
    Thanks
    7
    Thanked 116,804 Times in 53,167 Posts

    Angry [สเปน] • [*ใหม่*] Romina (2018) โรมินา • [เสียงสเปน 5.1] • [บรรยายไทย + 26 ภาษา] • [From Netflix Master 1080p]



    เหตุทำร้ายร่างกายอันสะเทือนขวัญก่อเกิดเป็นความรุนแ รงที่น่าสะพรึง เมื่อกลุ่มวัยรุ่นได้พบกับหญิงสาวจากโรงเรียนเดียวกั นขณะไปตั้งแคมป์ในพื้นที่ไกลห่าง

    Format : Matroska
    Format version : Version 4
    File size : 2.26 GiB
    Duration : 1 h 14 min
    Overall bit rate mode : Variable
    Overall bit rate : 4 338 kb/s
    Encoded date : UTC 2020-02-12 15:06:55
    Writing application : mkvmerge v43.0.0 ('The Quartermaster') 64-bit
    Writing library : libebml v1.3.10 + libmatroska v1.5.2

    Video
    ID : 1
    Format : AVC
    Format/Info : Advanced Video Codec
    Format profile : [email protected]
    Format settings : CABAC / 1 Ref Frames
    Format settings, CABAC : Yes
    Format settings, Reference : 1 frame
    Codec ID : V_MPEG4/ISO/AVC
    Duration : 1 h 14 min
    Bit rate mode : Variable
    Bit rate : 3 662 kb/s
    Maximum bit rate : 10.9 Mb/s
    Width : 1 920 pixels
    Height : 800 pixels
    Display aspect ratio : 2.40:1
    Frame rate mode : Constant
    Frame rate : 24.000 FPS
    Color space : YUV
    Chroma subsampling : 4:2:0
    Bit depth : 8 bits
    Scan type : Progressive
    Bits/(Pixel*Frame) : 0.099
    Stream size : 1.91 GiB (84%)
    Default : Yes
    Forced : No

    Audio
    ID : 2
    Format : E-AC-3
    Format/Info : Enhanced AC-3
    Commercial name : Dolby Digital Plus
    Codec ID : A_EAC3
    Duration : 1 h 14 min
    Bit rate mode : Constant
    Bit rate : 640 kb/s
    Channel(s) : 6 channels
    Channel layout : L R C LFE Ls Rs
    Sampling rate : 48.0 kHz
    Frame rate : 31.250 FPS (1536 SPF)
    Compression mode : Lossy
    Delay relative to video : -83 ms
    Stream size : 341 MiB (15%)
    Title : AC-3 Spanish
    Language : Spanish
    Service kind : Complete Main
    Default : Yes
    Forced : No

    Text #1
    ID : 3
    Format : VobSub
    Muxing mode : zlib
    Codec ID : S_VOBSUB
    Codec ID/Info : Picture based subtitle format used on DVDs
    Duration : 1 h 7 min
    Bit rate : 9 815 b/s
    Count of elements : 652
    Stream size : 4.71 MiB (0%)
    Title : Sub Thai 1080p
    Language : Thai
    Default : No
    Forced : No

    Text #2
    ID : 4
    Format : UTF-8
    Codec ID : S_TEXT/UTF8
    Codec ID/Info : UTF-8 Plain Text
    Duration : 1 h 7 min
    Bit rate : 106 b/s
    Count of elements : 652
    Stream size : 52.4 KiB (0%)
    Title : Sub Thai SRT
    Language : Thai
    Default : No
    Forced : No

    Text #3
    ID : 5
    Format : PGS
    Muxing mode : zlib
    Codec ID : S_HDMV/PGS
    Codec ID/Info : Picture based subtitle format used on BDs/HD-DVDs
    Duration : 1 h 7 min
    Bit rate : 25.6 kb/s
    Count of elements : 1304
    Stream size : 12.3 MiB (1%)
    Title : PGS Thai
    Language : Thai
    Default : Yes
    Forced : No

    Text #4
    ID : 6
    Format : VobSub
    Muxing mode : zlib
    Codec ID : S_VOBSUB
    Codec ID/Info : Picture based subtitle format used on DVDs
    Duration : 1 h 7 min
    Bit rate : 9 800 b/s
    Count of elements : 652
    Stream size : 4.70 MiB (0%)
    Title : Sub English 1080p
    Language : English
    Default : No
    Forced : No

    Text #5
    ID : 7
    Format : UTF-8
    Codec ID : S_TEXT/UTF8
    Codec ID/Info : UTF-8 Plain Text
    Duration : 1 h 7 min
    Bit rate : 47 b/s
    Count of elements : 652
    Stream size : 23.6 KiB (0%)
    Title : Sub English SRT
    Language : English
    Default : No
    Forced : No

    Text #6
    ID : 8
    Format : PGS
    Muxing mode : zlib
    Codec ID : S_HDMV/PGS
    Codec ID/Info : Picture based subtitle format used on BDs/HD-DVDs
    Duration : 1 h 7 min
    Bit rate : 26.2 kb/s
    Count of elements : 1304
    Stream size : 12.6 MiB (1%)
    Title : PGS English
    Language : English
    Default : No
    Forced : No






    4.0 GB
    http://cornfile.com/58s7x7g43zvz
    2.26 GB
    http://cornfile.com/hhy6a5h9zcdo

  2. #2
    Senior Member
    สมัครเมื่อ
    Oct 2013
    โพสต์
    1,644
    Thanks
    0
    Thanked 0 Times in 0 Posts
    ขอบคุณครับ

+ ตอบกลับกระทู้

ข้อมูลกระทู้

Users Browsing this Thread

ในขณะนี้มี 1 ท่านดูกระทู้อยู่. (0 สมาชิกและ 1 ผู้เยี่ยมชม)

     

กฎการโพสต์ข้อความ

  • ท่าน ไม่สามารถ ตั้งกระทู้ใหม่ได้
  • ท่าน ไม่สามารถ ตอบกระทู้ได้
  • ท่าน ไม่สามารถ แนบไฟล์ได้
  • ท่าน ไม่สามารถ แก้ไขข้อความโพสต์ได้
  • BB code สถานะ เปิด
  • Smilies สถานะ เปิด
  • [IMG] สถานะ เปิด
  • HTML สถานะ ปิด