+ ตอบกลับกระทู้
สรุปผลการค้นหา 1 ถึง 7 จากทั้งหมด 7
  1. #1
    Administrators รูปส่วนตัว Duckload.us
    สมัครเมื่อ
    Dec 2010
    โพสต์
    118,529
    Thanks
    7
    Thanked 124,598 Times in 55,776 Posts

    Question ภาพชัด เกมดูดโลก ตะลุยด่านมหัศจรรย์ 2019 Jumanji.The.Next.Level.2019.1080p.KORSUB.HDRip.x26 4.AAC2.0-THR.AC3.2.0 เสียงไทยโรง



    แก๊งกลับมาแล้ว แต่เกมก็เปลี่ยนไป ในขณะที่พวกเขากลับไปที่ Jumanji เพื่อช่วยเหลือตัวเองพวกเขาพบว่าไม่มีอะไรเป็นไปตามท ี่คาดหวัง ผู้เล่นจะต้องกล้าหาญสำรวจส่วนที่ไม่รู้จักจากทะเลทร ายที่แห้งแล้งไปจนถึงภูเขาหิมะเพื่อที่จะหลบหนีจากเก มที่อันตรายที่สุดในโลก

    หนังเรื่องนี้ไม่ได้มีเรื่องราวที่ลึกล้ำไม่พยายามเป ็นอะไรมากกว่านั้นคือหนังเรื่องนี้ทำให้คุณหัวเราะทำ ให้คุณเพลิดเพลินและทำให้คุณมีความสุข

    Format : Matroska
    Format version : Version 4
    File size : 3.75 GiB
    Duration : 2 h 3 min
    Overall bit rate : 4 360 kb/s
    Movie name : Jumanji.The.Next.Level.2019.1080p.KORSUB.HDRip.x26 4._©GOLD CUP™
    Video
    ID : 1
    Format : AVC
    Format/Info : Advanced Video Codec
    Format profile : [email protected]
    Format settings : CABAC / 1 Ref Frames
    Format settings, CABAC : Yes
    Format settings, Reference : 1 frame
    Format settings, GOP : M=1, N=25
    Codec ID : V_MPEG4/ISO/AVC
    Duration : 2 h 3 min
    Bit rate mode : Constant
    Bit rate : 3 500 kb/s
    Width : 1 920 pixels
    Height : 804 pixels
    Display aspect ratio : 2.40:1
    Frame rate mode : Constant
    Frame rate : 29.970 (30000/1001) FPS
    Color space : YUV
    Chroma subsampling : 4:2:0
    Bit depth : 8 bits
    Scan type : Progressive
    Bits/(Pixel*Frame) : 0.076
    Stream size : 3.01 GiB (80%)
    Title : Jumanji.The.Next.Level.2019.1080p.KORSUB.HDRip.x26 4._©GOLD CUP™
    Language : English
    Default : Yes
    Forced : No

    Audio #1
    ID : 2
    Format : AC-3
    Format/Info : Audio Coding 3
    Commercial name : Dolby Digital
    Codec ID : A_AC3
    Duration : 2 h 3 min
    Bit rate mode : Constant
    Bit rate : 192 kb/s
    Channel(s) : 2 channels
    Channel layout : L R
    Sampling rate : 48.0 kHz
    Frame rate : 31.250 FPS (1536 SPF)
    Compression mode : Lossy
    Stream size : 169 MiB (4%)
    Title : 2.0 AC3 _©GOLD CUP™THR 192k 169m
    Language : Thai
    Service kind : Complete Main
    Default : Yes
    Forced : No

    Audio #2
    ID : 3
    Format : AC-3
    Format/Info : Audio Coding 3
    Commercial name : Dolby Digital
    Codec ID : A_AC3
    Duration : 2 h 3 min
    Bit rate mode : Constant
    Bit rate : 640 kb/s
    Channel(s) : 2 channels
    Channel layout : L R
    Sampling rate : 44.1 kHz
    Frame rate : 28.711 FPS (1536 SPF)
    Compression mode : Lossy
    Stream size : 564 MiB (15%)
    Title : 2.0 AC3 EN 640k 563m_©GOLD CUP™
    Language : English
    Service kind : Complete Main
    Default : No
    Forced : No

    Text #1
    ID : 4
    Format : PGS
    Muxing mode : zlib
    Codec ID : S_HDMV/PGS
    Codec ID/Info : Picture based subtitle format used on BDs/HD-DVDs
    Duration : 1 h 54 min
    Bit rate : 23.5 kb/s
    Count of elements : 3442
    Stream size : 19.2 MiB (0%)
    Title : EN.PGS.Red.80-55-20_©GOLD CUP™
    Language : English
    Default : Yes
    Forced : No

    Text #2
    ID : 5
    Format : PGS
    Muxing mode : zlib
    Codec ID : S_HDMV/PGS
    Codec ID/Info : Picture based subtitle format used on BDs/HD-DVDs
    Duration : 2 h 2 min
    Bit rate : 27.3 kb/s
    Count of elements : 4402
    Stream size : 23.9 MiB (1%)
    Title : En.SDH.PGS.Yellow.80-55-23_©GOLD CUP™
    Language : English
    Default : No
    Forced : No





    Download: cornfile
    3.8 GB http://cornfile.com/hmc8t8dn3org
    6.19 GB http://cornfile.com/miapyvot56y5
    Download: mekafile
    Jumanji.The.Next.Level.2019.part1.rar
    http://www.filecondo.com/dl.php?f=Rm3b66c5kIHj
    Jumanji.The.Next.Level.2019.part2.rar
    http://www.filecondo.com/dl.php?f=oo87c3c5kJ9Z
    Jumanji.The.Next.Level.2019.part3.rar
    http://www.filecondo.com/dl.php?f=ts0014c5kJBq
    Jumanji.The.Next.Level.2019.part4.rar
    http://www.filecondo.com/dl.php?f=Nt958ec5kKac
    Jumanji.The.Next.Level.2019.part5.rar
    http://www.filecondo.com/dl.php?f=O4422ac5kKBD

  2. The Following 2 Users Say Thank You to Duckload.us For This Useful Post:

    chock (02-15-2020), Wesker_TOT (02-16-2020)

  3. #2
    Junior Member
    สมัครเมื่อ
    Oct 2012
    โพสต์
    2
    Thanks
    1
    Thanked 0 Times in 0 Posts
    ขึ้น http://cornfile.com:182 ครับ

  4. #3
    Senior Member รูปส่วนตัว ksurachai
    สมัครเมื่อ
    Nov 2019
    โพสต์
    214
    Thanks
    94
    Thanked 0 Times in 0 Posts
    โหลดไม่ได้ครับ

  5. #4
    Senior Member
    สมัครเมื่อ
    Dec 2013
    โพสต์
    2,373
    Thanks
    4,298
    Thanked 0 Times in 0 Posts
    ขอบคุณนะครับ...

  6. #5
    Senior Member
    สมัครเมื่อ
    Jun 2014
    โพสต์
    4,621
    Thanks
    0
    Thanked 0 Times in 0 Posts
    ขอบคุณครับ

  7. #6
    Senior Member
    สมัครเมื่อ
    Oct 2013
    โพสต์
    1,756
    Thanks
    0
    Thanked 0 Times in 0 Posts
    ขอบคุณครับ

  8. #7
    Senior Member
    สมัครเมื่อ
    Dec 2013
    โพสต์
    2,373
    Thanks
    4,298
    Thanked 0 Times in 0 Posts
    ขอบคุณนะครับ...

+ ตอบกลับกระทู้

ข้อมูลกระทู้

Users Browsing this Thread

ในขณะนี้มี 1 ท่านดูกระทู้อยู่. (0 สมาชิกและ 1 ผู้เยี่ยมชม)

     

กฎการโพสต์ข้อความ

  • ท่าน ไม่สามารถ ตั้งกระทู้ใหม่ได้
  • ท่าน ไม่สามารถ ตอบกระทู้ได้
  • ท่าน ไม่สามารถ แนบไฟล์ได้
  • ท่าน ไม่สามารถ แก้ไขข้อความโพสต์ได้
  • BB code สถานะ เปิด
  • Smilies สถานะ เปิด
  • [IMG] สถานะ เปิด
  • HTML สถานะ ปิด