+ ตอบกลับกระทู้
สรุปผลการค้นหา 1 ถึง 3 จากทั้งหมด 3
  1. #1
    Administrators รูปส่วนตัว Duckload.us
    สมัครเมื่อ
    Dec 2010
    โพสต์
    111,066
    Thanks
    7
    Thanked 116,403 Times in 53,059 Posts

    Question (จีน.NEW)-Golden Job (2018) มังกรฟัดล่าทอง-[X264 1080p bluay.mkv ][Sound:Chinese/Thai AC3 5.1:MASTER][SUB:Eng:SRT][เสียง From MASTER]



    หมวดหนัง : แอคชั่น-ผจญภัย ดารานำ: Ekin Cheng, Jordan Chan, Michael Tseผู้กำกับ: Kar Lok Chin : กุมภาพันธ์ 2562
    กลุ่มทหารรับจ้างที่เป็นเพื่อนซี้กัน ถูกส่งตัวไปทำภารกิจขโมยรถขนวัคซีนยา เพื่อที่จะนำไปช่วยเด็กๆยากไร้ที่ต้องการยาพวกนี้ แต่เรื่องราวกลับตาลปัตรพอขโมยรถมาได้กลับไม่เจอยา แต่กลับเจอทองมูลค่ามหาศาล ทำให้พวกเขารู้ทันทีว่าโดนหลอกใช้ให้มาปล้นทองโดยเพื ่อนสนิทที่เคยเชื่อใจ งานนี้พวกเขาต้องเลือกระหว่างเพื่อน หรือความถูกต้อง

    Format : Matroska
    Format version : Version 4
    File size : 2.18 GiB
    Duration : 1 h 39 min
    Overall bit rate : 3 141 kb/s
    Encoded date : UTC 2019-02-07 05:07:34

    Video
    ID : 1
    Format : AVC
    Format/Info : Advanced Video Codec
    Format profile : [email protected]
    Format settings : CABAC / 4 Ref Frames
    Format settings, CABAC : Yes
    Format settings, ReFrames : 4 frames
    Codec ID : V_MPEG4/ISO/AVC
    Duration : 1 h 39 min
    Bit rate : 2 500 kb/s
    Width : 1 920 pixels
    Height : 816 pixels
    Display aspect ratio : 2.35:1
    Frame rate mode : Constant
    Frame rate : 24.000 FPS
    Color space : YUV
    Chroma subsampling : 4:2:0
    Bit depth : 8 bits
    Scan type : Progressive
    Bits/(Pixel*Frame) : 0.066
    Stream size : 1.73 GiB (80%)
    Title : Golden.Job.2018.1080p.BluRay
    Writing library : x264 core 152 r2851M ba24899
    Language : Chinese
    Default : Yes
    Forced : No

    Audio #1
    ID : 2
    Format : AC-3
    Format/Info : Audio Coding 3
    Commercial name : Dolby Digital
    Codec ID : A_AC3
    Duration : 1 h 39 min
    Bit rate mode : Constant
    Bit rate : 320 kb/s
    Channel(s) : 6 channels
    Channel layout : L R C LFE Ls Rs
    Sampling rate : 44.1 kHz
    Frame rate : 28.711 FPS (1536 SPF)
    Bit depth : 16 bits
    Compression mode : Lossy
    Delay relative to video : -43 ms
    Stream size : 227 MiB (10%)
    Title : 5.1 AC3
    Language : Thai
    Service kind : Complete Main
    Default : Yes
    Forced : No

    Audio #2
    ID : 3
    Format : AC-3
    Format/Info : Audio Coding 3
    Commercial name : Dolby Digital
    Codec ID : A_AC3
    Duration : 1 h 39 min
    Bit rate mode : Constant
    Bit rate : 320 kb/s
    Channel(s) : 6 channels
    Channel layout : L R C LFE Ls Rs
    Sampling rate : 44.1 kHz
    Frame rate : 28.711 FPS (1536 SPF)
    Bit depth : 16 bits
    Compression mode : Lossy
    Delay relative to video : -43 ms
    Stream size : 227 MiB (10%)
    Title : 5.1 AC3
    Language : Chinese
    Service kind : Complete Main
    Default : No
    Forced : No

    Text
    ID : 4
    Format : UTF-8
    Codec ID : S_TEXT/UTF8
    Codec ID/Info : UTF-8 Plain Text
    Duration : 1 h 32 min
    Bit rate : 49 b/s
    Count of elements : 1008
    Stream size : 33.5 KiB (0%)
    Title : SRT
    Language : English
    Default : Yes
    Forced : No





    Download: cornfile
    http://cornfile.com/xam19t8q7vus
    Download: mekafile
    Golden Job[2018]1080p.BluRay.part1.rar
    http://www.mekafile.com/dl.php?f=ZPbc13c5mGf9
    Golden Job[2018]1080p.BluRay.part2.rar
    http://www.mekafile.com/dl.php?f=081697c5mGEr

  2. The Following 2 Users Say Thank You to Duckload.us For This Useful Post:

    apichartdear (02-15-2020), chock (02-15-2020)

  3. #2
    Senior Member
    สมัครเมื่อ
    Jun 2014
    โพสต์
    2,511
    Thanks
    0
    Thanked 0 Times in 0 Posts
    ขอบคุณครับ

  4. #3
    Senior Member
    สมัครเมื่อ
    Oct 2013
    โพสต์
    1,643
    Thanks
    0
    Thanked 0 Times in 0 Posts
    ขอบคุณครับ

+ ตอบกลับกระทู้

ข้อมูลกระทู้

Users Browsing this Thread

ในขณะนี้มี 1 ท่านดูกระทู้อยู่. (0 สมาชิกและ 1 ผู้เยี่ยมชม)

     

กฎการโพสต์ข้อความ

  • ท่าน ไม่สามารถ ตั้งกระทู้ใหม่ได้
  • ท่าน ไม่สามารถ ตอบกระทู้ได้
  • ท่าน ไม่สามารถ แนบไฟล์ได้
  • ท่าน ไม่สามารถ แก้ไขข้อความโพสต์ได้
  • BB code สถานะ เปิด
  • Smilies สถานะ เปิด
  • [IMG] สถานะ เปิด
  • HTML สถานะ ปิด