+ ตอบกลับกระทู้
สรุปผลการค้นหา 1 ถึง 1 จากทั้งหมด 1
  1. #1
    Administrators รูปส่วนตัว Duckload.us
    สมัครเมื่อ
    Dec 2010
    โพสต์
    112,845
    Thanks
    7
    Thanked 118,733 Times in 53,713 Posts

    Question [ฝรั่ง] - [ THE GOLDFINCH (2019) โกลด์ฟินช์] [พากย์ไทย มาสเตอร์ ] [720p] [MP4]




    The Goldfinch (2019) โกลด์ฟินช์
    เรื่องย่อ : The Goldfinch หรือชื่อไทยว่า โกลด์ฟินช์ เรื่องราวเกี่ยวกับเด็กหนุ่มคนหนึ่งในนครนิวยอร์กที่ ถูกครอบครัวมหาเศรษฐีย่านอัปเปอร์อีสต์ไซด์เอามาเลี้ ยง The Goldfinch หลังจากที่แม่ของเขาเสียชีวิตไปในเหตุระเบิดที่พิพิธ ภัณฑ์ศิลปะเมโทรโพลิทัน The Goldfinch โกลด์ฟินช์

    Format : MPEG-4
    Format profile : Base Media / Version 2
    Codec ID : mp42 (isom/iso2/avc1/mp41/mp42)
    File size : 1.39 GiB
    Duration : 2 h 30 min
    Overall bit rate : 1 325 kb/s

    Video
    ID : 1
    Format : AVC
    Format/Info : Advanced Video Codec
    Format profile : [email protected]
    Format settings : CABAC / 4 Ref Frames
    Format settings, CABAC : Yes
    Format settings, Reference frames : 4 frames
    Codec ID : avc1
    Codec ID/Info : Advanced Video Coding
    Duration : 2 h 30 min
    Bit rate : 1 205 kb/s
    Width : 1 280 pixels
    Height : 694 pixels
    Display aspect ratio : 1.85:1
    Frame rate mode : Constant
    Frame rate : 23.976 (24000/1001) FPS
    Color space : YUV
    Chroma subsampling : 4:2:0
    Bit depth : 8 bits
    Scan type : Progressive
    Bits/(Pixel*Frame) : 0.057
    Stream size : 1.25 GiB (90%)
    Title : ISO Media file produced by Google Inc. Created on: 02/14/2020.
    Writing library : x264 core 155 r2917 0a84d98
    Encoding settings : cabac=1 / ref=2 / deblock=1:0:0 / analyse=0x3:0x113 / me=hex / subme=6 / psy=1 / psy_rd=1.00:0.00 / mixed_ref=1 / me_range=16 / chroma_me=1 / trellis=1 / 8x8dct=1 / cqm=0 / deadzone=21,11 / fast_pskip=1 / chroma_qp_offset=-2 / threads=22 / lookahead_threads=3 / sliced_threads=0 / nr=0 / decimate=1 / interlaced=0 / bluray_compat=0 / constrained_intra=0 / bframes=3 / b_pyramid=2 / b_adapt=1 / b_bias=0 / direct=1 / weightb=1 / open_gop=0 / weightp=1 / keyint=120 / keyint_min=12 / scenecut=40 / intra_refresh=0 / rc_lookahead=30 / rc=abr / mbtree=1 / bitrate=1205 / ratetol=1.0 / qcomp=0.60 / qpmin=0 / qpmax=69 / qpstep=4 / ip_ratio=1.40 / aq=1:1.00
    Tagged date : UTC 2020-02-15 04:53:42
    Codec configuration box : avcC

    Audio
    ID : 2
    Format : AAC LC
    Format/Info : Advanced Audio Codec Low Complexity
    Codec ID : mp4a-40-2
    Duration : 2 h 30 min
    Source duration : 2 h 30 min
    Bit rate mode : Constant
    Bit rate : 128 kb/s
    Channel(s) : 2 channels
    Channel layout : L R
    Sampling rate : 44.1 kHz
    Frame rate : 43.066 FPS (1024 SPF)
    Compression mode : Lossy
    Stream size : 137 MiB (10%)
    Source stream size : 137 MiB (10%)
    Title : ISO Media file produced by Google Inc. Created on: 02/14/2020.
    Default : Yes
    Alternate group : 1
    Tagged date : UTC 2020-02-15 04:53:42





    Download: cornfile
    http://cornfile.com/7nahj4tklrja
    Download: mekafile
    http://www.mekafile.com/dl.php?f=yDb15ac5mVdk

  2. The Following User Says Thank You to Duckload.us For This Useful Post:

    amorn wichian (02-16-2020)

+ ตอบกลับกระทู้

ข้อมูลกระทู้

Users Browsing this Thread

ในขณะนี้มี 1 ท่านดูกระทู้อยู่. (0 สมาชิกและ 1 ผู้เยี่ยมชม)

     

กฎการโพสต์ข้อความ

  • ท่าน ไม่สามารถ ตั้งกระทู้ใหม่ได้
  • ท่าน ไม่สามารถ ตอบกระทู้ได้
  • ท่าน ไม่สามารถ แนบไฟล์ได้
  • ท่าน ไม่สามารถ แก้ไขข้อความโพสต์ได้
  • BB code สถานะ เปิด
  • Smilies สถานะ เปิด
  • [IMG] สถานะ เปิด
  • HTML สถานะ ปิด